<?xml version="1.0" standalone="no"?>
<!DOCTYPE svg PUBLIC "-//W3C//DTD SVG 1.1//EN" "http://www.w3.org/Graphics/SVG/1.1/DTD/svg11.dtd" >
<svg xmlns="http://www.w3.org/2000/svg">
<metadata>Generated by IcoMoon</metadata>
<defs>
<font id="Libro" horiz-adv-x="1024">
<font-face units-per-em="1024" ascent="960" descent="-64" />
<missing-glyph horiz-adv-x="1024" />
<glyph unicode="&#x20;" horiz-adv-x="512" d="" />
<glyph unicode="&#xe900;" glyph-name="sv-lock" d="M512 856.748c-136.143 0-245.76-109.617-245.76-245.76v-40.96c-44.772 0-81.92-37.148-81.92-81.921v-409.6c0-44.769 37.148-81.92 81.92-81.92h491.52c44.773 0 81.92 37.151 81.92 81.92v409.6c0 44.773-37.147 81.921-81.92 81.921v40.96c0 136.143-109.617 245.76-245.76 245.76zM512 774.828c93.233 0 163.84-70.607 163.84-163.84v-40.96h-327.68v40.96c0 93.233 70.607 163.84 163.84 163.84zM266.24 488.107h491.52v-409.6h-491.52v409.6zM608.322 189.685v-45.003h-199.202v38.4l94.201 101.003c9.466 10.531 16.933 19.8 22.401 27.8 5.464 8.131 9.4 15.401 11.796 21.799 2.535 6.533 3.801 12.734 3.801 18.6 0 8.798-1.466 16.335-4.399 22.602-2.933 6.398-7.266 11.334-13.001 14.799-5.599 3.465-12.534 5.198-20.799 5.198-8.798 0-16.4-2.13-22.798-6.398-6.267-4.268-11.067-10.199-14.402-17.801-3.199-7.598-4.801-16.2-4.801-25.801h-57.799c0 17.334 4.133 33.202 12.4 47.6 8.267 14.537 19.935 26.067 35 34.603 15.065 8.667 32.932 13.001 53.6 13.001 20.398 0 37.601-3.334 51.601-10.002 14.131-6.533 24.797-15.999 31.998-28.398 7.336-12.268 11.002-26.935 11.002-44.003 0-9.597-1.536-18.997-4.6-28.197-3.068-9.069-7.467-18.133-13.201-27.202-5.599-8.933-12.399-18.002-20.398-27.202-8.004-9.2-16.867-18.731-26.604-28.598l-50.598-56.799h124.801z" />
<glyph unicode="&#xe901;" glyph-name="sv-outline" d="M512 877.228l-368.64-163.84v-245.761c0-320.717 263.741-470.467 368.64-491.52 104.899 21.053 368.64 170.803 368.64 491.52v245.761l-368.64 163.84zM512 787.549l286.72-127.44v-192.481c0-251.249-195.994-379.064-286.72-407.040-90.726 27.976-286.72 155.791-286.72 407.040v192.481l286.72 127.44zM634.88 301.772v-54.727h-238.807v46.698l112.929 122.835c11.35 12.808 20.3 24.076 26.853 33.808 6.554 9.892 11.272 18.727 14.148 26.509 3.039 7.946 4.555 15.487 4.555 22.622 0 10.703-1.757 19.864-5.276 27.485-3.514 7.783-8.708 13.783-15.581 17.999-6.713 4.216-15.028 6.324-24.936 6.324-10.551 0-19.661-2.594-27.333-7.784-7.516-5.189-13.267-12.405-17.265-21.647-3.838-9.242-5.755-19.703-5.755-31.377h-69.292c0 21.078 4.955 40.376 14.866 57.889 9.91 17.675 23.896 31.701 41.958 42.079 18.063 10.54 39.481 15.81 64.258 15.81 24.457 0 45.076-4.054 61.858-12.161 16.945-7.946 29.733-19.459 38.363-34.539 8.794-14.918 13.189-32.755 13.189-53.513 0-11.674-1.839-23.106-5.517-34.296-3.674-11.026-8.95-22.053-15.823-33.079-6.713-10.863-14.864-21.889-24.457-33.079-9.589-11.186-20.218-22.782-31.887-34.779l-60.662-69.079h149.615z" />
<glyph unicode="&#xe902;" glyph-name="accessibility" d="M535.4 836.267c-67.748 0-122.88-55.132-122.88-122.88 0-42.763 22.041-80.382 55.28-102.4-33.239-22.018-55.28-59.637-55.28-102.401v-163.84c0-45.179 36.741-81.92 81.92-81.92h181.6l110.961-184.959 70.238 42.242-122.88 204.8c-7.373 12.329-20.742 19.837-35.119 19.837h-40.96v163.84c0 42.764-22.041 80.384-55.28 102.401 33.239 22.018 55.28 59.637 55.28 102.4 0 67.748-55.132 122.88-122.88 122.88zM535.4 754.347c22.569 0 40.96-18.391 40.96-40.96s-18.391-40.96-40.96-40.96c-22.569 0-40.96 18.391-40.96 40.96s18.391 40.96 40.96 40.96zM535.4 549.547c22.569 0 40.96-18.391 40.96-40.961v-163.84h-81.92v163.84c0 22.57 18.391 40.961 40.96 40.961zM330.6 494.267c-95.314-33.833-163.84-124.658-163.84-231.44 0-135.537 110.223-245.76 245.76-245.76 106.783 0 197.607 68.526 231.44 163.84h-90.399c-28.426-48.742-80.667-81.92-141.042-81.92-90.358 0-163.84 73.482-163.84 163.84 0 60.375 33.178 112.615 81.92 141.042v90.399z" />
<glyph unicode="&#xe903;" glyph-name="account" d="M81.92 191.147v-81.92h467.763c1.229 33.997 30.31 61.85 70.042 81.92h-537.805zM163.84 273.067h81.92v327.681h81.92v-327.681h81.92v327.681h81.92v-327.681h81.92v327.681h81.92v-181.044c21.299 24.576 49.562 42.598 81.92 50.79v130.254h81.92v102.4l-368.64 163.84-368.64-163.84v-102.4h81.92v-327.681zM450.56 777.286l212.992-94.618h-425.984l212.992 94.618zM737.28 384.888c-24.576-14.336-40.96-40.55-40.96-70.861 0-14.746 4.096-29.082 11.059-40.96 12.698-21.299 34.406-36.864 60.211-40.141 3.277-0.41 6.963-0.819 10.65-0.819 6.963 0 13.517 0.819 19.661 2.458 35.635 9.011 62.259 41.37 62.259 79.462 0 45.056-36.864 81.92-81.92 81.92-14.746 0-29.082-4.096-40.96-11.059zM819.2 146.091c-14.746 2.867-28.672 4.096-40.141 4.096-0.41 0-0.41 0-0.819 0-37.683 0-101.99-14.336-137.626-40.96-15.974-11.878-26.214-26.214-26.214-43.008v-79.872h327.68v79.872c0 42.598-67.584 70.042-122.88 79.872z" />
<glyph unicode="&#xe904;" glyph-name="add" d="M474.075 768v-303.407h-303.408v-75.851h303.408v-303.407h75.851v303.407h303.407v75.851h-303.407v303.407h-75.851z" />
<glyph unicode="&#xe905;" glyph-name="add-small" d="M512 853.334c-235.264 0-426.667-191.403-426.667-426.667s191.403-426.667 426.667-426.667c235.264 0 426.667 191.403 426.667 426.667s-191.403 426.667-426.667 426.667zM512 768c188.203 0 341.333-153.131 341.333-341.333s-153.131-341.333-341.333-341.333c-188.203 0-341.334 153.131-341.334 341.333s153.131 341.333 341.334 341.333zM469.333 597.334v-128h-128v-85.333h128v-128h85.333v128h128v85.333h-128v128h-85.333z" />
<glyph unicode="&#xe906;" glyph-name="apple" d="M666.466 836.267c7.442-49.669-13.009-98.434-39.928-133.007-28.733-37.009-78.332-65.599-126.263-64.069-8.761 47.513 13.775 96.625 40.976 129.738 29.983 36.313 81.322 64.347 125.215 67.339zM810.813 135.891c24.695 37.634 33.948 56.693 53.146 99.336-139.682 52.871-162.152 250.364-23.859 326.19-42.295 52.591-101.425 83.060-157.356 83.060-40.382 0-68.030-10.478-93.159-20.001-20.922-7.931-40.1-15.199-63.431-15.199-25.17 0-47.473 7.964-70.84 16.308-25.711 9.181-52.708 18.822-86.236 18.822-62.817 0-129.668-38.261-171.964-103.373-59.756-91.825-49.53-264.483 47.165-411.755 34.574-52.519 80.695-111.649 141.008-112.206 25.043-0.258 41.705 7.152 59.736 15.167 20.637 9.179 43.062 19.149 81.897 19.337 39.191 0.336 61.301-9.777 81.719-19.12 17.531-8.020 33.817-15.471 58.593-15.245 60.244 0.418 109.007 66.085 143.581 118.678z" />
<glyph unicode="&#xe907;" glyph-name="arrow-back" d="M428.167 728.334l-301.667-301.667 301.667-301.666 64 64-195 194.999h600.333v85.333h-600.333l195 195-64 64z" />
<glyph unicode="&#xe908;" glyph-name="arrow-down" d="M317 588.167l-64-64 259-258.999 258.999 258.999-64 64-194.999-194.999-195 194.999z" />
<glyph unicode="&#xe909;" glyph-name="arrow-left" d="M673.501 621.667l-64 64-259.002-259 259.002-258.999 64 64-195.004 194.999 195.004 195z" />
<glyph unicode="&#xe90a;" glyph-name="arrow-right" d="M414.5 685.667l-64-64 194.999-195-194.999-194.999 64-64 258.999 258.999-258.999 259z" />
<glyph unicode="&#xe90b;" glyph-name="arrow-up" d="M512 588.167l-259-259 64-64 195 194.999 194.999-194.999 64 64-258.999 259z" />
<glyph unicode="&#xe90c;" glyph-name="attachment" d="M450.56 877.228c-90.003 0-163.84-73.837-163.84-163.84v-512.001c0-123.924 101.352-225.28 225.28-225.28s225.28 101.356 225.28 225.28v471.041h-81.92v-471.041c0-79.643-63.717-143.36-143.36-143.36s-143.36 63.717-143.36 143.36v512.001c0 45.739 36.181 81.92 81.92 81.92s81.92-36.181 81.92-81.92v-430.081c0-11.751-8.729-20.48-20.48-20.48s-20.48 8.729-20.48 20.48v389.121h-81.92v-389.121c0-56.074 46.322-102.4 102.4-102.4s102.4 46.326 102.4 102.4v430.081c0 90.003-73.839 163.84-163.84 163.84z" />
<glyph unicode="&#xe90d;" glyph-name="bill" d="M810.668 853.334c0-23.552-19.115-42.667-42.667-42.667s-42.667 19.115-42.667 42.667h-85.333c0-23.552-19.115-42.667-42.667-42.667s-42.667 19.115-42.667 42.667h-85.333c0-23.552-19.115-42.667-42.667-42.667s-42.667 19.115-42.667 42.667h-85.333c0-23.552-19.115-42.667-42.667-42.667s-42.667 19.115-42.667 42.667h-85.333v-768c0-47.147 38.187-85.333 85.333-85.333h597.333c47.147 0 85.333 38.187 85.333 85.333v768h-85.333zM554.668 170.667h-256v85.333h256v-85.333zM554.668 341.334h-256v85.333h256v-85.333zM725.334 170.667h-85.333v85.333h85.333v-85.333zM725.334 341.334h-85.333v85.333h85.333v-85.333zM725.334 554.667h-426.667v85.333h426.667v-85.333zM810.668 85.334h-597.333v640h597.333v-640z" />
<glyph unicode="&#xe90e;" glyph-name="branch" d="M511.999 853.375c-164.523 0-298.333-133.894-298.333-298.417 0-191.274 254.579-501.986 265.416-515.084l32.917-39.915 32.917 39.915c10.837 13.141 265.417 323.81 265.417 515.084 0 164.565-133.811 298.417-298.334 298.417zM511.999 768.041c117.461 0 213.001-95.622 213.001-213.083 0-115.413-132.873-313.911-213.001-419.084-80.128 105.088-213 303.501-213 419.084 0 117.461 95.539 213.083 213 213.083zM511.999 661.792c-58.923 0-106.667-47.744-106.667-106.667s47.744-106.667 106.667-106.667c58.923 0 106.667 47.744 106.667 106.667s-47.744 106.667-106.667 106.667z" />
<glyph unicode="&#xe90f;" glyph-name="business" d="M383.999 789.334v-42.667h-213.333c-47.147 0-85.333-38.187-85.333-85.333v-512c0-47.061 38.272-85.333 85.333-85.333h682.667c47.061 0 85.333 38.272 85.333 85.333v512c0 47.147-38.187 85.333-85.333 85.333h-213.333v42.667h-256zM170.666 661.334h682.667v-298.667h-85.333c0 11.315-4.497 22.17-12.497 30.17s-18.854 12.497-30.17 12.497c-11.315 0-22.17-4.497-30.17-12.497s-12.497-18.854-12.497-30.17h-341.333c0 11.315-4.495 22.17-12.497 30.17s-18.854 12.497-30.17 12.497c-11.316 0-22.168-4.497-30.17-12.497s-12.497-18.854-12.497-30.17h-85.333v298.667zM170.666 277.334h682.667v-128h-682.667v128z" />
<glyph unicode="&#xe910;" glyph-name="m-calculator" d="M184.32 877.228c-45.261 0-81.92-36.659-81.92-81.92v-655.361c0-45.261 36.659-81.92 81.92-81.92h427.119c-11.633 27.156-17.519 55.665-17.519 81.92h-409.6v491.521h491.52v-81.921h81.92v245.761c0 45.261-36.659 81.92-81.92 81.92h-491.52zM184.32 795.308h491.52v-81.92h-491.52v81.92zM266.24 549.547v-81.92h81.92v81.92h-81.92zM389.12 549.547v-81.92h81.92v81.92h-81.92zM512 549.547v-81.92h81.92v81.92h-81.92zM757.76 467.627v-49.119c-40.96-12.288-81.92-49.185-81.92-114.721 0-77.824 65.52-102.416 106.48-118.8 49.152-20.48 57.36-24.56 57.36-45.040s-8.192-40.96-40.96-40.96c-32.768 0-40.96 20.48-40.96 40.96h-81.92c0-40.96 24.576-98.337 81.92-114.717v-49.123h81.92v49.123c57.344 16.38 81.92 73.757 81.92 114.717 0 77.824-65.52 102.416-106.48 118.8-49.152 20.48-57.36 24.56-57.36 45.040 0 32.768 20.48 40.96 40.96 40.96 32.768 0 40.96-20.48 40.96-40.96h81.92c0 40.96-24.576 98.337-81.92 114.721v49.119h-81.92zM266.24 426.667v-81.92h81.92v81.92h-81.92zM389.12 426.667v-81.92h81.92v81.92h-81.92zM512 426.667v-81.92h81.92v81.92h-81.92zM266.24 303.787v-81.92h81.92v81.92h-81.92zM389.12 303.787v-81.92h204.8v81.92h-204.8z" />
<glyph unicode="&#xe911;" glyph-name="calculator" d="M266.24 836.268c-45.261 0-81.92-36.659-81.92-81.92v-655.361c0-45.261 36.659-81.92 81.92-81.92h491.52c45.261 0 81.92 36.659 81.92 81.92v655.361c0 45.261-36.659 81.92-81.92 81.92h-491.52zM266.24 754.348h491.52v-81.92h-491.52v81.92zM266.24 590.508h491.52v-491.521h-491.52v491.521zM348.16 508.587v-81.92h81.92v81.92h-81.92zM471.040 508.587v-81.92h81.92v81.92h-81.92zM593.92 508.587v-81.92h81.92v81.92h-81.92zM348.16 385.707v-81.92h81.92v81.92h-81.92zM471.040 385.707v-81.92h81.92v81.92h-81.92zM593.92 385.707v-81.92h81.92v81.92h-81.92zM348.16 262.827v-81.92h81.92v81.92h-81.92zM471.040 262.827v-81.92h204.8v81.92h-204.8z" />
<glyph unicode="&#xe912;" glyph-name="camera" d="M634.798 795.348l-245.758-0.24-75.12-81.76h-129.6c-45.056 0-81.92-36.864-81.92-81.92v-491.521c0-45.056 36.864-81.92 81.92-81.92h655.36c45.056 0 81.92 36.864 81.92 81.92v491.521c0 45.056-36.864 81.92-81.92 81.92h-129.278l-75.604 82zM598.88 713.428l75.6-82h165.2v-491.521h-655.36v491.521h165.6l75.2 81.84 173.76 0.16zM512 590.468c-113.091 0-204.8-91.711-204.8-204.801s91.709-204.8 204.8-204.8c113.091 0 204.8 91.709 204.8 204.8s-91.709 204.801-204.8 204.801zM512 508.547c67.871 0 122.88-55.009 122.88-122.88s-55.009-122.88-122.88-122.88c-67.871 0-122.88 55.009-122.88 122.88s55.009 122.88 122.88 122.88z" />
<glyph unicode="&#xe913;" glyph-name="checkmark" d="M844.502 727.918l-481.835-481.832-183.167 183.164-60.333-60.331 243.5-243.503 542.165 542.168-60.331 60.333z" />
<glyph unicode="&#xe914;" glyph-name="cheque-images" d="M307.2 808.183v-81.92h81.92v81.92h-81.92zM184.32 480.502h-81.92v81.921h81.92v-81.921zM102.4 316.662h81.92v81.92h-81.92v-81.92zM471.040 726.263v81.92h81.92v-81.92h-81.92zM634.88 808.183v-81.92h81.92v81.92h-81.92zM839.68 603.383h81.92v-81.921h-81.92v81.921zM839.68 726.263h-40.96v81.92h40.96c45.244 0 81.92-36.677 81.92-81.92v-40.96h-81.92v40.96zM184.32 193.782h40.96v-81.92h-40.96c-45.243 0-81.92 36.68-81.92 81.92v40.96h81.92v-40.96zM184.32 685.303v40.96h40.96v81.92h-40.96c-45.243 0-81.92-36.677-81.92-81.92v-40.96h81.92zM552.96 536.671l-54.559-81.92h-88.801c-33.915 0-61.44-27.525-61.44-61.44v-286.72c0-33.915 27.525-61.44 61.44-61.44h450.56c33.915 0 61.44 27.525 61.44 61.44v286.72c0 33.915-27.525 61.44-61.44 61.44h-88.801l-54.559 81.92h-163.84zM596.799 454.751h76.161l54.641-81.92h112.079v-245.76h-409.6v245.76h112.079l54.641 81.92zM634.88 331.871c-21.725 0-42.562-8.63-57.926-23.994s-23.994-36.2-23.994-57.926c0-21.725 8.63-42.562 23.994-57.926s36.2-23.994 57.926-23.994c21.725 0 42.562 8.63 57.926 23.994s23.994 36.2 23.994 57.926c0 21.725-8.63 42.562-23.994 57.926s-36.2 23.994-57.926 23.994z" />
<glyph unicode="&#xe915;" glyph-name="chequing" d="M143.36 754.348c-44.772 0-81.92-37.148-81.92-81.92v-491.521c0-44.769 37.148-81.92 81.92-81.92h737.28c44.773 0 81.92 37.151 81.92 81.92v491.521c0 44.772-37.147 81.92-81.92 81.92h-737.28zM143.36 672.428h520.798v-42.16c-13.885-1.761-91.677-16.361-91.677-110.16 0-136.847 141.677-96.341 141.677-187.678 0-45.715-29.495-46.801-35.516-46.801-5.489 0-41.603-2.879-41.603 67.039h-77.439c0-118.456 86.020-127.84 98.8-129.602v-42.16h-515.039v491.521zM705.442 672.428h175.198v-491.521h-181.199v42.16c13.885 1.761 92.16 14.606 92.16 109.92-0.041 131.318-141.763 106.234-141.763 186.801 0 46.162 25.473 47.6 30.962 47.6 10.035 0 33.919-8.882 33.919-65.121h77.439c0 107.644-73.568 124.383-86.716 126.881v43.28zM225.28 549.548v-81.921h245.76v81.921h-245.76zM225.28 385.707v-81.92h204.8v81.92h-204.8z" />
<glyph unicode="&#xe916;" glyph-name="close" d="M273.066 149.335l-59.733 59.733 238.935 238.933-238.935 238.932 59.733 59.733 238.935-238.932 238.933 238.932 59.733-59.733-238.933-238.932 238.933-238.933-59.733-59.733-238.933 238.933-238.935-238.933z" />
<glyph unicode="&#xe917;" glyph-name="close-filled" d="M85.333 426.667c0 235.136 191.531 426.667 426.667 426.667s426.667-191.531 426.667-426.667c0-235.136-191.531-426.667-426.667-426.667s-426.667 191.531-426.667 426.667zM371.5 627.5l-60.333-60.333 140.498-140.5-140.498-140.501 60.333-60.331 140.5 140.497 140.501-140.497 60.331 60.331-140.497 140.501 140.497 140.5-60.331 60.333-140.501-140.498-140.5 140.498z" />
<glyph unicode="&#xe918;" glyph-name="close-outline" d="M512 853.334c-235.136 0-426.667-191.531-426.667-426.667s191.531-426.667 426.667-426.667c235.136 0 426.667 191.531 426.667 426.667s-191.531 426.667-426.667 426.667zM512 768c189.018 0 341.333-152.315 341.333-341.333s-152.316-341.333-341.333-341.333c-189.018 0-341.333 152.316-341.333 341.333s152.315 341.333 341.333 341.333zM371.5 627.5l-60.333-60.333 140.498-140.5-140.498-140.501 60.333-60.331 140.5 140.497 140.501-140.497 60.331 60.331-140.497 140.501 140.497 140.5-60.331 60.333-140.501-140.498-140.5 140.498z" />
<glyph unicode="&#xe919;" glyph-name="communication" d="M184.32 754.347c-45.261 0-81.92-36.659-81.92-81.92v-491.521c0-45.261 36.659-81.92 81.92-81.92h655.36c45.261 0 81.92 36.659 81.92 81.92v491.521c0 45.261-36.659 81.92-81.92 81.92h-655.36zM184.32 672.427h655.36v-41.040l-327.68-204.721-327.68 204.721v41.040zM184.32 549.468l327.68-204.721 327.68 204.721v-368.561h-655.36v368.561z" />
<glyph unicode="&#xe91a;" glyph-name="contact" d="M840.621 283.799c-25.805 0.614-58.286 2.13-78.807 5.734-22.2 3.932-48.906 11.551-67.707 17.408-14.746 4.588-30.802 0.532-41.738-10.363l-90.808-90.276c-62.751 33.055-113.009 71.557-155.566 114.36-42.803 42.557-81.306 92.815-114.36 155.566l90.276 90.851c10.895 10.936 14.95 26.993 10.363 41.738-5.816 18.76-13.476 45.466-17.367 67.666-3.645 20.521-5.12 53.002-5.775 78.807-0.532 22.323-18.719 40.018-41.042 40.018h-143.77c-17.94 0-40.96-13.435-40.96-40.96 0-185.917 75.366-363.48 203.407-492.914 129.434-128.041 306.995-203.407 492.913-203.407 27.525 0 40.96 23.020 40.96 40.96v143.77c0 22.323-17.695 40.509-40.018 41.042z" />
<glyph unicode="&#xe91b;" glyph-name="contacts-search" d="M450.56 856.747c-90.001 0-163.84-73.839-163.84-163.84s73.839-163.841 163.84-163.841c90.001 0 163.84 73.84 163.84 163.841s-73.839 163.84-163.84 163.84zM450.56 774.827c45.728 0 81.92-36.191 81.92-81.92s-36.192-81.92-81.92-81.92c-45.728 0-81.92 36.192-81.92 81.92s36.192 81.92 81.92 81.92zM696.32 447.146c-114.688 0-204.8-90.112-204.8-204.8s90.112-204.8 204.8-204.8c40.96 0 81.953 12.321 114.721 32.801l73.679-73.761 57.36 57.36-73.761 73.683c20.48 32.764 32.801 73.757 32.801 114.717 0 114.688-90.112 204.8-204.8 204.8zM450.56 406.186c-128.655 0-368.64-63.324-368.64-184.32v-102.4h355.68c-12.124 25.477-20.582 52.961-24.719 81.92h-249.041v20.48c0 33.055 130.872 92.922 257.52 101.36 8.765 29.901 22.274 57.655 39.682 82.641-3.482 0.082-7.164 0.319-10.482 0.319zM696.32 365.226c69.632 0 122.88-53.248 122.88-122.88s-53.248-122.88-122.88-122.88c-69.632 0-122.88 53.248-122.88 122.88s53.248 122.88 122.88 122.88z" />
<glyph unicode="&#xe91c;" glyph-name="contacts" d="M266.24 836.268c-45.179 0-81.92-36.741-81.92-81.92v-655.361c0-45.179 36.741-81.92 81.92-81.92h491.52c45.179 0 81.92 36.741 81.92 81.92v655.361c0 45.179-36.741 81.92-81.92 81.92h-491.52zM266.24 754.348h491.52v-655.361l-491.52-0.078v655.439zM512 672.428c-68.895 0-122.88-53.944-122.88-122.88s53.985-122.881 122.88-122.881 122.88 53.944 122.88 122.881c0 68.936-53.985 122.88-122.88 122.88zM512 590.508c23.757 0 40.96-17.244 40.96-40.96s-17.203-40.961-40.96-40.961c-23.757 0-40.96 17.245-40.96 40.961s17.203 40.96 40.96 40.96zM512 385.707c-116.777 0-204.8-59.625-204.8-138.637v-66.163h409.6v66.163c0 79.012-88.023 138.637-204.8 138.637zM512 303.787c60.211 0 101.97-20.644 116.879-40.96h-233.76c14.868 20.316 56.669 40.96 116.88 40.96z" />
<glyph unicode="&#xe91d;" glyph-name="credential" d="M266.24 795.308c-90.001 0-163.84-73.839-163.84-163.84 0-75.788 52.601-139.495 122.88-157.918v-415.523h204.8v81.92h-122.88v81.92h81.92v81.92h-81.92v169.763c70.279 18.424 122.88 82.13 122.88 157.918 0 90.001-73.839 163.84-163.84 163.84zM266.24 713.388c45.728 0 81.92-36.191 81.92-81.92s-36.192-81.92-81.92-81.92c-45.728 0-81.92 36.192-81.92 81.92s36.192 81.92 81.92 81.92zM512 713.388v-245.761h409.6v245.761h-409.6zM593.92 631.468h245.76v-81.92h-245.76v81.92zM512 385.707v-245.76h409.6v245.76h-409.6zM593.92 303.787h245.76v-81.92h-245.76v81.92z" />
<glyph unicode="&#xe91e;" glyph-name="currency-calculator" d="M512 836.267c-112.746 0-215.269-46.011-289.44-120.16l-79.2 79.2v-204.8h204.8l-67.76 67.76c59.324 59.381 141.090 96.080 231.6 96.080 181.023 0 327.68-146.658 327.68-327.681h81.92c0 225.466-184.136 409.601-409.6 409.601zM500.24 688.827v-58.48c-13.885-1.761-91.6-16.442-91.6-110.24 0-136.847 141.678-96.3 141.678-187.6 0-45.711-29.577-46.801-35.598-46.801-5.489 0-41.521-2.92-41.521 67.039h-77.439c0-118.456 85.942-127.918 98.721-129.679v-54.477h41.038v54.477c13.844 1.72 92.16 14.647 92.16 110.002 0 131.277-141.64 106.152-141.681 186.719 0 46.162 25.391 47.6 30.88 47.6 10.035 0 33.923-8.882 33.923-65.121h77.439c0 107.603-73.572 124.383-86.721 126.881v59.68h-41.279zM102.4 426.666c0-225.464 184.135-409.6 409.6-409.6 112.746 0 215.269 46.014 289.44 120.16l79.2-79.2v204.8h-204.8l67.76-67.76c-59.322-59.38-141.091-96.080-231.6-96.080-181.022 0-327.68 146.661-327.68 327.68h-81.92z" />
<glyph unicode="&#xe91f;" glyph-name="data-export" d="M191.999 896.001c-47.147 0-85.333-38.187-85.333-85.333v-682.667c0-47.147 38.187-85.333 85.333-85.333h348.668l-85.333 85.333h-263.334v170.667h426.667v85.333h-426.667v170.667h512v-85.333h85.333v341.333c0 47.147-38.187 85.333-85.333 85.333h-512zM191.999 810.668h512v-170.667h-512v170.667zM703.999 384.001v-256h-128l170.667-170.667 170.667 170.667h-128v256h-85.333z" />
<glyph unicode="&#xe920;" glyph-name="date" d="M266.24 836.267v-81.92h-40.96c-45.056 0-81.92-36.864-81.92-81.92v-573.441c0-45.056 36.864-81.92 81.92-81.92h573.44c45.056 0 81.92 36.864 81.92 81.92v573.441c0 45.056-36.864 81.92-81.92 81.92h-40.96v81.92h-81.92v-81.92h-327.68v81.92h-81.92zM225.28 672.427h573.44v-81.92h-573.44v81.92zM225.28 508.586h573.44v-409.6h-573.44v409.6zM552.96 344.746v-163.84h163.84v163.84h-163.84z" />
<glyph unicode="&#xe921;" glyph-name="delete" d="M430.080 836.267l-40.96-40.96h-204.8v-81.92h40.96v-614.401c0-21.389 7.837-43.196 23.28-58.638s37.25-23.282 58.64-23.282h409.6c21.389 0 43.196 7.84 58.638 23.282 15.446 15.442 23.282 37.249 23.282 58.638v614.401h40.96v81.92h-204.8l-40.96 40.96h-163.84zM307.2 713.387h409.6v-614.401h-409.6v614.401zM389.12 631.467v-450.561h81.92v450.561h-81.92zM552.96 631.467v-450.561h81.92v450.561h-81.92z" />
<glyph unicode="&#xe922;" glyph-name="doc" d="M266.24 836.268c-44.82 0-81.92-37.099-81.92-81.92v-655.361c0-44.818 37.1-81.92 81.92-81.92h491.52c44.823 0 81.92 37.102 81.92 81.92v491.521l-245.76 245.76h-327.68zM266.24 754.348h286.72v-204.8h204.8v-450.561h-491.52v655.361zM348.16 426.667v-81.92h327.68v81.92h-327.68zM348.16 262.827v-81.92h327.68v81.92h-327.68z" />
<glyph unicode="&#xe923;" glyph-name="doc_docx" d="M266.24 836.268c-44.82 0-81.92-37.099-81.92-81.92v-655.361c0-44.818 37.1-81.92 81.92-81.92h491.52c44.823 0 81.92 37.102 81.92 81.92v491.521l-245.76 245.76h-327.68zM266.24 754.348h286.72v-204.8h204.8v-450.561h-491.52v655.361zM593.92 508.587v-225.28c0-11.751-8.729-20.48-20.48-20.48s-20.48 8.729-20.48 20.48v143.36h-81.92v-184.32c0-8.872-11.604-20.48-20.48-20.48s-20.48 11.608-20.48 20.48v225.28h-122.88v-81.92h40.96v-143.36c0-56.66 45.739-102.4 102.4-102.4 36.594 0 68.456 19.223 86.561 48.001 11.342-4.387 23.527-7.041 36.319-7.041 56.078 0 102.4 46.326 102.4 102.4v143.36h40.96v81.92h-122.88z" />
<glyph unicode="&#xe924;" glyph-name="doc_img" d="M184.32 754.348c-44.772 0-81.92-37.148-81.92-81.92v-491.521c0-44.769 37.148-81.92 81.92-81.92h655.36c44.773 0 81.92 37.151 81.92 81.92v491.521c0 44.772-37.147 81.92-81.92 81.92h-655.36zM184.32 672.428h655.36v-491.521h-655.36v491.521zM430.080 590.508c-10.863 0-21.282-4.316-28.963-11.997s-11.997-18.1-11.997-28.963c0-10.863 4.316-21.282 11.997-28.963s18.1-11.998 28.963-11.998c10.863 0 21.283 4.317 28.963 11.998s11.997 18.1 11.997 28.963c0 10.863-4.317 21.282-11.997 28.963s-18.1 11.997-28.963 11.997zM614.4 467.627l-143.36-163.84-102.4 102.4-111.52-143.36h510.88l-153.6 204.8z" />
<glyph unicode="&#xe925;" glyph-name="doc_pdf" d="M266.24 836.268c-44.82 0-81.92-37.099-81.92-81.92v-655.361c0-44.818 37.1-81.92 81.92-81.92h491.52c44.823 0 81.92 37.102 81.92 81.92v491.521l-245.76 245.76h-327.68zM266.24 754.348h286.72v-204.8h204.8v-450.561h-491.52v655.361zM505.119 549.548c-22.528 0-39.399-15.296-42.717-41.92-3.277-26.583 9.9-73.069 32.879-116.24-9.871-29.901-19.73-56.455-32.879-83.038-42.723-13.271-82.137-33.174-98.562-53.121-26.255-29.86-13.113-49.807-6.56-59.761 6.595-9.953 16.452-14.561 29.6-14.561 6.595 0 13.165 1.323 19.76 4.641 26.295 9.953 52.505 49.832 78.802 96.322 22.979 6.636 45.982 13.242 68.96 16.56 22.979-26.542 46.055-43.205 65.757-49.84 22.979-6.636 42.689 3.375 52.56 26.64 6.554 19.948 3.228 36.483-13.197 46.477-19.743 13.271-52.597 13.32-92 10.002-13.148 19.907-26.21 39.813-36.082 59.761 16.425 49.807 22.954 92.934 16.4 119.517-6.595 23.266-20.193 38.561-42.721 38.561z" />
<glyph unicode="&#xe926;" glyph-name="doc_xlxs" d="M266.24 836.268c-44.82 0-81.92-37.099-81.92-81.92v-655.361c0-44.818 37.1-81.92 81.92-81.92h491.52c44.823 0 81.92 37.102 81.92 81.92v491.521l-245.76 245.76h-327.68zM266.24 754.348h286.72v-204.8h204.8v-450.561h-491.52v655.361zM473.518 357.15l-77.198 151.437h72.799l37.921-90.718c3.031-7.414 5.304-16.011 7.68-25.76h1.040c1.393 5.816 4.145 14.807 8.241 26.481l42.16 89.997h66.4l-79.36-150.319 81.678-152.879h-70.799l-45.601 98.882c-1.72 3.482-3.76 10.408-5.439 20.156h-0.639c-1.024-4.669-3.088-11.739-6.16-21.119l-46.002-98.079h-71.119l84.398 151.921z" />
<glyph unicode="&#xe927;" glyph-name="download" d="M448 853.333c-34.861 0-64-29.139-64-64v-277.333h-188.333l316.333-316.335 316.335 316.335h-188.335v277.333c0 34.861-29.137 64-64 64h-128zM469.333 767.999h85.333v-341.333h67.665l-110.332-110.332-110.333 110.332h67.667v341.333zM85.333 85.333v-85.333h853.333v85.333h-853.333z" />
<glyph unicode="&#xe928;" glyph-name="drag-handle" d="M143.36 549.548v-81.921h737.28v81.921h-737.28zM143.36 385.707v-81.92h737.28v81.92h-737.28z" />
<glyph unicode="&#xe929;" glyph-name="dropdown" d="M298.667 533.334l213.333-213.333 213.333 213.333h-426.667z" />
<glyph unicode="&#xe92a;" glyph-name="dropdown_flipped" d="M725.332 320.001l-213.333 213.333-213.333-213.333h426.667z" />
<glyph unicode="&#xe92b;" glyph-name="edit" d="M754.237 815.788c-10.486 0-20.976-4.013-28.963-12l-602.399-602.401v-163.84h163.84l602.399 602.401c16.015 16.015 16.015 41.945 0 57.92l-105.918 105.92c-7.987 7.987-18.473 12-28.959 12zM754.237 716.909l47.997-48-52.957-52.96-48.001 48 52.961 52.96zM643.354 606.029l48.001-48-438.56-438.561h-48v48.001l438.559 438.56z" />
<glyph unicode="&#xe92c;" glyph-name="error" d="M512 853.334c-235.648 0-426.667-191.019-426.667-426.667s191.019-426.667 426.667-426.667c235.648 0 426.667 191.019 426.667 426.667s-191.019 426.667-426.667 426.667zM512 768c188.501 0 341.333-152.832 341.333-341.333s-152.832-341.333-341.333-341.333c-188.501 0-341.333 152.832-341.333 341.333s152.832 341.333 341.333 341.333zM469.333 640v-256h85.333v256h-85.333zM469.333 298.667v-85.333h85.333v85.333h-85.333z" />
<glyph unicode="&#xe92d;" glyph-name="filter" d="M430.080 836.267c-52.968 0-98.105-34.516-115.2-81.92h-212.48v-81.92h212.48c17.095-47.404 62.232-81.92 115.2-81.92 67.379 0 122.88 55.5 122.88 122.88s-55.501 122.88-122.88 122.88zM430.080 754.347c23.106 0 40.96-17.853 40.96-40.96s-17.854-40.96-40.96-40.96c-23.107 0-40.96 17.853-40.96 40.96s17.853 40.96 40.96 40.96zM634.88 754.347v-81.92h286.72v81.92h-286.72zM634.88 549.547c-52.969 0-98.103-34.514-115.2-81.921h-417.28v-81.92h417.28c17.097-47.403 62.231-81.92 115.2-81.92 67.379 0 122.88 55.501 122.88 122.88s-55.501 122.881-122.88 122.881zM634.88 467.626c23.106 0 40.96-17.85 40.96-40.96 0-23.106-17.854-40.96-40.96-40.96s-40.96 17.854-40.96 40.96c0 23.11 17.854 40.96 40.96 40.96zM839.68 467.626v-81.92h81.92v81.92h-81.92zM307.2 262.826c-52.968 0-98.105-34.513-115.2-81.92h-89.6v-81.92h89.6c17.095-47.403 62.232-81.92 115.2-81.92 67.38 0 122.88 55.501 122.88 122.88s-55.5 122.88-122.88 122.88zM307.2 180.906c23.107 0 40.96-17.85 40.96-40.96 0-23.106-17.853-40.96-40.96-40.96s-40.96 17.854-40.96 40.96c0 23.11 17.853 40.96 40.96 40.96zM512 180.906v-81.92h409.6v81.92h-409.6z" />
<glyph unicode="&#xe92e;" glyph-name="folder-add" d="M143.377 836.249c-45.056 0-81.92-36.864-81.92-81.92v-491.521c0-45.056 36.864-81.92 81.92-81.92h330.961c-1.925 13.394-3.281 27.034-3.281 40.96s1.356 27.566 3.281 40.96h-330.961v409.601h655.36v-167.118c28.959-4.137 56.443-12.599 81.92-24.723v191.841c0 45.056-36.864 81.92-81.92 81.92h-327.68l-81.92 81.92h-245.76zM758.096 426.009c-52.29-0.016-104.563-20.042-144.56-59.998-39.977-39.977-60.158-92.135-60.158-144.482s20.181-104.542 60.158-144.478c79.954-79.954 209.089-79.954 289.042 0s79.954 209.166 0 289.12c-39.936 39.895-92.193 59.855-144.482 59.838zM717.296 344.65h81.92v-81.92h81.92v-81.92h-81.92v-81.92h-81.92v81.92h-81.92v81.92h81.92v81.92z" />
<glyph unicode="&#xe92f;" glyph-name="folder" d="M853.332 682.667h-341.333l-85.333 85.333h-256c-46.933 0-85.333-38.4-85.333-85.333v-512c0-46.933 38.4-85.333 85.333-85.333h682.667c46.933 0 85.333 38.4 85.333 85.333v426.667c0 46.933-38.4 85.333-85.333 85.333zM853.332 170.667h-682.667v426.667h682.667v-426.667z" />
<glyph unicode="&#xe930;" glyph-name="help" d="M512.002 853.334c-225.34 0-408.89-191.531-408.89-426.667s183.55-426.667 408.89-426.667c225.34 0 408.887 191.531 408.887 426.667s-183.548 426.667-408.887 426.667zM512.002 768c181.141 0 327.108-152.315 327.108-341.333s-145.967-341.333-327.108-341.333c-181.144 0-327.112 152.316-327.112 341.333s145.968 341.333 327.112 341.333zM512.002 682.667c-90.365 0-163.557-76.373-163.557-170.667h81.778c0 46.933 36.8 85.333 81.779 85.333 44.975 0 81.775-38.4 81.775-85.333 0-85.333-122.667-100.992-122.667-213.333h81.779c0 70.443 122.667 106.667 122.667 213.333 0 94.293-73.19 170.667-163.554 170.667zM471.11 256v-85.333h81.779v85.333h-81.779z" />
<glyph unicode="&#xe931;" glyph-name="hidden" d="M192.799 803.788l-57.92-57.92 93.76-93.76c-109.234-87.831-160.612-201.529-163.92-209.279l-6.88-16.163 6.88-16.159c5.448-12.739 137.131-311.521 447.28-311.521 84.636 0 155.533 22.548 214.561 55.202l104.641-104.641 57.917 57.922-696.319 696.318zM511.999 754.348c-49.603 0-94.207-8.217-134.88-21.12l67.439-67.44c21.34 4.055 43.643 6.64 67.441 6.64 221.020 0 334.545-187.93 364.159-245.601-12.042-23.060-38.429-67.822-79.757-112.878l58.397-58.401c68.813 74.465 101.818 148.775 104.481 154.96l6.881 16.159-6.881 16.163c-5.448 12.739-137.13 311.518-447.279 311.518zM287.199 593.548l84-83.999c-14.522-24.269-23.040-52.527-23.040-82.883 0-90.358 73.482-163.84 163.84-163.84 30.355 0 58.61 8.52 82.878 23.040l70.64-70.64c-43.979-20.853-95.015-34.32-153.518-34.32-221.020 0-334.546 187.929-364.16 245.6 17.024 32.604 62.704 108.179 139.36 167.041zM520.719 589.629l154.239-154.241c-4.465 83.272-70.967 149.776-154.239 154.241zM433.118 447.631l99.84-99.84c-6.705-1.806-13.672-3.043-20.959-3.043-45.179 0-81.92 36.741-81.92 81.92 0 7.287 1.237 14.254 3.039 20.963z" />
<glyph unicode="&#xe932;" glyph-name="info" d="M512 853.334c-235.136 0-426.667-191.531-426.667-426.667s191.531-426.667 426.667-426.667c235.136 0 426.667 191.531 426.667 426.667s-191.531 426.667-426.667 426.667zM512 768c189.018 0 341.333-152.315 341.333-341.333s-152.316-341.333-341.333-341.333c-189.019 0-341.334 152.316-341.334 341.333s152.315 341.333 341.334 341.333zM469.333 640v-85.333h85.333v85.333h-85.333zM469.333 469.334v-256h85.333v256h-85.333z" />
<glyph unicode="&#xe933;" glyph-name="joint-account" d="M348.16 713.388c-67.871 0-122.88-55.009-122.88-122.88s55.009-122.881 122.88-122.881c67.871 0 122.88 55.011 122.88 122.881s-55.009 122.88-122.88 122.88zM675.84 713.388c-67.871 0-122.88-55.009-122.88-122.88s55.009-122.881 122.88-122.881c67.871 0 122.88 55.011 122.88 122.881s-55.009 122.88-122.88 122.88zM348.16 631.468c22.569 0 40.96-18.391 40.96-40.96s-18.391-40.96-40.96-40.96c-22.569 0-40.96 18.391-40.96 40.96s18.391 40.96 40.96 40.96zM675.84 631.468c22.569 0 40.96-18.391 40.96-40.96s-18.391-40.96-40.96-40.96c-22.569 0-40.96 18.391-40.96 40.96s18.391 40.96 40.96 40.96zM348.16 385.707c-122.88 0-286.72-59.965-286.72-143.36v-102.4h901.12v102.4c0 83.395-163.84 143.36-286.72 143.36-52.597 0-112.161-11.588-163.68-30.72-51.614 19.182-111.296 30.72-164 30.72zM348.16 303.787c96.666 0 189.235-42.009 204.8-65.52v-16.4h-409.6v16.4c15.565 23.511 108.134 65.52 204.8 65.52zM675.84 303.787c96.666 0 189.235-42.009 204.8-65.52v-16.4h-245.76v20.48c0 19.735-9.409 38.097-25.039 54.723 21.283 3.879 43.258 6.717 65.999 6.717z" />
<glyph unicode="&#xe934;" glyph-name="link" d="M266.24 631.467c-113.091 0-204.8-91.709-204.8-204.801s91.709-204.8 204.8-204.8h163.84v81.92h-163.84c-67.871 0-122.88 55.009-122.88 122.88s55.009 122.881 122.88 122.881h163.84v81.92h-163.84zM593.92 631.467v-81.92h163.84c67.871 0 122.88-55.011 122.88-122.881s-55.009-122.88-122.88-122.88h-163.84v-81.92h163.84c113.091 0 204.8 91.709 204.8 204.8s-91.709 204.801-204.8 204.801h-163.84zM307.2 467.626v-81.92h409.6v81.92h-409.6z" />
<glyph unicode="&#xe935;" glyph-name="lock" d="M512 856.748c-136.143 0-245.76-109.617-245.76-245.76v-40.96c-44.772 0-81.92-37.148-81.92-81.921v-409.6c0-44.769 37.148-81.92 81.92-81.92h491.52c44.773 0 81.92 37.151 81.92 81.92v409.6c0 44.773-37.147 81.921-81.92 81.921v40.96c0 136.143-109.617 245.76-245.76 245.76zM512 774.828c93.233 0 163.84-70.607 163.84-163.84v-40.96h-327.68v40.96c0 93.233 70.607 163.84 163.84 163.84zM266.24 488.107h491.52v-409.6h-491.52v409.6zM512 365.227c-45.056 0-81.92-36.864-81.92-81.92s36.864-81.92 81.92-81.92c45.056 0 81.92 36.864 81.92 81.92s-36.864 81.92-81.92 81.92z" />
<glyph unicode="&#xe936;" glyph-name="logout" d="M469.334 853.334v-426.667h85.333v426.667h-85.333zM384 833.751c-173.099-54.4-298.667-216.065-298.667-407.084 0-235.648 191.019-426.667 426.667-426.667s426.667 191.019 426.667 426.667c0 191.019-125.568 352.684-298.667 407.084v-90.833c125.056-50.645 213.333-173.061 213.333-316.25 0-188.501-152.832-341.333-341.333-341.333s-341.334 152.832-341.334 341.333c0 143.232 88.277 265.605 213.333 316.25v90.833z" />
<glyph unicode="&#xe937;" glyph-name="mastercard" d="M170.666 768c-47.147 0-85.333-38.187-85.333-85.333v-512c0-47.147 38.187-85.333 85.333-85.333h682.667c47.147 0 85.333 38.187 85.333 85.333v512c0 47.147-38.187 85.333-85.333 85.333h-682.667zM170.666 682.667h682.667v-85.333h-682.667v85.333zM170.666 469.334h682.667v-298.667h-682.667v298.667z" />
<glyph unicode="&#xe938;" glyph-name="menu" d="M85.333 725.334v-85.333h853.333v85.333h-853.333zM85.333 469.334v-85.333h853.333v85.333h-853.333zM85.333 213.334v-85.333h853.333v85.333h-853.333z" />
<glyph unicode="&#xe939;" glyph-name="messages" d="M512 876.668c-232.593 0-426.667-169.559-426.667-384 0-214.443 194.074-384 426.667-384 14.771 0 28.382 2.965 42.667 4.335v-136.337l65.749 42.167c92.254 59.213 292.011 212.911 315.836 433.502 1.51 13.124 2.415 26.564 2.415 40.333 0 214.441-194.074 384-426.667 384zM512 791.334c191.599 0 341.333-136.105 341.333-298.667 0-10.266-0.636-20.506-1.835-30.835v-0.166l-0.081-0.166c-14.746-136.555-124.058-243.81-211.418-313.749v64.499l-51.085-10.334c-24.986-5.043-50.662-7.915-76.915-7.915-191.599 0-341.333 136.107-341.333 298.667s149.734 298.667 341.333 298.667zM298.667 535.334v-85.333h85.333v85.333h-85.333zM469.333 535.334v-85.333h85.333v85.333h-85.333zM640 535.334v-85.333h85.333v85.333h-85.333z" />
<glyph unicode="&#xe93a;" glyph-name="mobilepay" d="M674.763 852.843c-10.799 1.632-22.217-0.855-31.667-7.917-18.944-13.995-22.912-40.723-8.917-59.667 72.533-98.133 112.503-225.463 112.503-358.583s-39.97-260.489-112.503-358.665c-13.995-18.944-10.027-45.675 8.917-59.669 7.595-5.675 16.503-8.333 25.335-8.333 13.099 0 25.971 5.986 34.334 17.25 83.328 112.768 129.25 258.163 129.25 409.417s-45.922 296.608-129.25 409.334c-6.997 9.451-17.203 15.201-28.002 16.833zM531.262 765.843c-10.82 1.424-22.153-1.311-31.497-8.5-18.688-14.336-22.255-41.146-7.919-59.834 53.461-69.632 84.169-168.348 84.169-270.833 0-102.229-30.545-200.823-83.836-270.498-14.293-18.688-10.731-45.457 8-59.75 7.723-5.931 16.789-8.836 25.835-8.836 12.8 0 25.468 5.786 33.916 16.751 65.365 85.461 101.419 199.966 101.419 322.334 0 122.71-36.173 237.329-101.837 322.833-7.189 9.344-17.425 14.909-28.25 16.334zM388.264 680.426c-10.896 0.736-22.063-2.713-30.917-10.5-17.749-15.488-19.531-42.417-4-60.167 32.085-36.693 52-106.838 52-183.084s-19.955-146.389-52.083-183.083c-15.488-17.749-13.666-44.681 4.083-60.169 8.107-7.083 18.142-10.581 28.084-10.581 11.904 0 23.72 4.898 32.168 14.583 45.739 52.309 73.084 141.798 73.084 239.249s-27.388 186.941-73.169 239.25c-7.765 8.896-18.353 13.764-29.249 14.5zM237.431 589.343c-10.896 0.709-22.042-2.735-30.917-10.5-17.707-15.531-19.49-42.46-3.917-60.166 20.352-23.252 32.083-56.8 32.083-92s-11.731-68.745-32.083-91.998c-15.531-17.707-13.707-44.638 4-60.169 8.107-7.083 18.099-10.581 28.083-10.581 11.819 0 23.678 4.898 32.084 14.498 34.389 39.125 53.25 91.802 53.25 148.25s-18.86 109.125-53.25 148.25c-7.744 8.853-18.438 13.707-29.333 14.417z" />
<glyph unicode="&#xe93b;" glyph-name="more-v" d="M512 597.334c46.933 0 85.333 38.4 85.333 85.333s-38.4 85.333-85.333 85.333c-46.933 0-85.333-38.4-85.333-85.333s38.4-85.333 85.333-85.333zM512 512c-46.933 0-85.333-38.4-85.333-85.333s38.4-85.333 85.333-85.333c46.933 0 85.333 38.4 85.333 85.333s-38.4 85.333-85.333 85.333zM426.667 170.667c0 46.933 38.4 85.333 85.333 85.333s85.333-38.4 85.333-85.333c0-46.933-38.4-85.333-85.333-85.333s-85.333 38.4-85.333 85.333z" />
<glyph unicode="&#xe93c;" glyph-name="mortgages" d="M512 829.876l-469.333-422.417h128v-384h682.667v384h128l-469.333 422.417zM512 715.042l256-230.416v-375.834h-231.501v43.917c14.421 1.792 96 15.253 96 114.581 0 136.747-147.541 110.575-147.584 194.5 0 48.087 26.449 49.585 32.166 49.585 10.453 0 35.337-9.252 35.337-67.834h80.666c0 112.085-76.638 129.564-90.334 132.167v62.167h-42.999v-60.916c-14.464-1.835-95.417-17.127-95.417-114.836 0-142.545 147.581-100.309 147.581-195.413 0-47.616-30.81-48.751-37.082-48.751-5.717 0-43.251-3.042-43.251 69.833h-80.665c0-123.392 89.523-133.248 102.835-135.083v-43.917h-237.751v375.834l256 230.416z" />
<glyph unicode="&#xe93d;" glyph-name="mutual-funds" d="M917.333 832l-226.167-34.167 65.835-65.833-130.752-130.75-68.663 64.333-173.918-178.249-63.334 63.332-200.75-196.666 59.75-60.919 140.334 137.587 64.666-64.67 175.919 180.168 67.917-63.666 189.163 189.167 65.835-65.833 34.167 226.167zM789.333 490.667v-469.333h85.333v469.333h-85.333zM618.666 405.333v-384h85.333v384h-85.333zM448 320v-298.667h85.333v298.667h-85.333zM277.333 234.667v-213.333h85.333v213.333h-85.333zM106.666 149.333v-128h85.333v128h-85.333z" />
<glyph unicode="&#xe93e;" glyph-name="newcomers" d="M512 853.334l-23.535-23.618-71.621-72.908-71.622-22.592-29.673-9.242 7.162-29.78 38.881-158.139-56.275 39.021-22.51 15.404-72.646-72.908-96.179-43.129-28.649-13.35 11.255-28.753 36.835-93.444-10.232-78.042-4.093-32.862 229.193-28.753v-68.8h130.967v-131.439h65.485v131.439h130.965v68.8l229.193 28.753-4.092 32.862-10.231 78.042 36.834 93.444 11.255 28.753-28.651 13.35-96.179 43.129-72.644 72.908-22.511-15.404-56.273-39.021 38.882 158.139 7.159 29.78-29.67 9.242-71.625 22.592-71.62 72.908-23.535 23.618zM512 759.888l61.389-61.613 7.164-2.054 50.138-15.403-52.181-212.564-20.467-85.231 70.601 50.317 104.367 72.909 37.854-39.019 5.116-4.109 5.12-3.081 73.668-32.862-27.627-70.852-3.072-8.218 1.024-8.213 6.14-53.397-192.358-23.616-28.646-4.109v-61.615h-196.453v61.615l-28.649 4.109-192.358 23.616 6.139 53.397 1.023 8.213-3.069 8.218-27.626 70.852 73.669 32.862 5.116 3.081 5.116 4.109 37.858 39.019 104.365-72.909 70.601-50.317-20.467 85.231-52.18 212.564 50.136 15.403 7.164 2.054 61.389 61.613z" />
<glyph unicode="&#xe93f;" glyph-name="note" d="M213.333 810.666c-47.147 0-85.333-38.187-85.333-85.333v-597.333c0-47.147 38.187-85.333 85.333-85.333h426.667l256 256v426.667c0 47.147-38.187 85.333-85.333 85.333h-597.333zM213.333 725.333h597.333v-384h-213.333v-213.333h-384v597.333zM298.667 639.999v-85.333h426.667v85.333h-426.667zM298.667 469.333v-85.333h213.333v85.333h-213.333z" />
<glyph unicode="&#xe940;" glyph-name="notifications" d="M512 836.267c-33.915 0-61.44-27.525-61.44-61.44v-28.48c-105.956-27.311-184.32-123.269-184.32-237.761v-245.76l-81.92-81.92v-40.96h256.799c-7.213-12.448-11.018-26.575-11.039-40.96 0-21.725 8.63-42.562 23.994-57.926s36.2-23.994 57.926-23.994c21.725 0 42.562 8.63 57.926 23.994s23.994 36.2 23.994 57.926c-0.045 14.393-3.879 28.52-11.121 40.96h256.881v40.96l-81.92 81.92v245.76c0 114.493-78.365 210.45-184.32 237.761v28.48c0 33.915-27.525 61.44-61.44 61.44zM512 672.427c90.358 0 163.84-73.482 163.84-163.841v-279.679l7.041-7.041h-341.761l7.040 7.041v279.679c0 90.359 73.482 163.841 163.84 163.841z" />
<glyph unicode="&#xe941;" glyph-name="paper-setting" d="M307.2 795.307l-245.76-245.76v-245.761c0-44.818 37.1-81.92 81.92-81.92h573.44c44.823 0 81.92 37.102 81.92 81.92v409.601c0 44.821-37.097 81.92-81.92 81.92h-409.6zM348.16 713.387h368.64v-409.601h-573.44v204.8h204.8v204.801zM880.64 631.467v-491.521h-655.36v-81.92h655.36c45.261 0 81.92 36.659 81.92 81.92v491.521h-81.92z" />
<glyph unicode="&#xe942;" glyph-name="personal" d="M512 795.308c-90.001 0-163.84-73.839-163.84-163.84s73.839-163.841 163.84-163.841c90.001 0 163.84 73.84 163.84 163.841s-73.839 163.84-163.84 163.84zM512 713.388c45.728 0 81.92-36.191 81.92-81.92s-36.192-81.92-81.92-81.92c-45.728 0-81.92 36.192-81.92 81.92s36.192 81.92 81.92 81.92zM512 344.747c-71.475 0-156.174-16.785-227.36-44.88-35.593-14.045-67.769-30.732-93.52-52.158s-47.76-50.393-47.76-87.282v-102.4h737.28v102.4c0 36.889-22.008 65.855-47.759 87.282s-57.926 38.113-93.52 52.158c-71.188 28.094-155.886 44.88-227.361 44.88zM512 262.827c57.917 0 137.056-15.319 197.362-39.117 30.151-11.903 55.648-26.087 71.119-38.961s18.239-21.643 18.239-24.322v-20.48h-573.44v20.48c0 2.679 2.768 11.448 18.24 24.322s40.967 27.058 71.12 38.961c60.306 23.798 139.443 39.117 197.36 39.117z" />
<glyph unicode="&#xe943;" glyph-name="print" d="M266.24 795.308v-163.84h-40.96c-67.584 0-122.88-55.296-122.88-122.881v-286.72h163.84v-163.84h491.52v163.84h163.84v286.72c0 67.585-55.296 122.881-122.88 122.881h-40.96v163.84h-491.52zM348.16 713.388h327.68v-81.92h-327.68v81.92zM225.28 549.547h573.44c22.61 0 40.96-18.35 40.96-40.96v-204.8h-81.92v81.92h-491.52v-81.92h-81.92v204.8c0 22.61 18.35 40.96 40.96 40.96zM757.76 508.587c-10.863 0-21.283-4.313-28.963-11.997-7.68-7.68-11.997-18.1-11.997-28.963s4.317-21.279 11.997-28.963c7.68-7.68 18.1-11.997 28.963-11.997s21.283 4.317 28.963 11.997c7.68 7.684 11.997 18.1 11.997 28.963s-4.317 21.283-11.997 28.963c-7.68 7.684-18.1 11.997-28.963 11.997zM348.16 303.787h327.68v-163.84h-327.68v163.84z" />
<glyph unicode="&#xe944;" glyph-name="processing" d="M469.332 845.585v-162.917h85.333v162.917h-85.333zM339.498 810.835l-73.917-42.667 81.5-141.167 73.832 42.667-81.416 141.167zM684.5 810.835l-81.417-141.167 73.83-42.667 81.502 141.167-73.916 42.667zM170.499 673.085l-42.667-73.917 141.167-81.417 42.667 73.833-141.167 81.5zM853.498 673.085l-141.167-81.5 42.667-73.833 141.167 81.417-42.667 73.917zM93.082 469.335v-85.333h162.917v85.333h-162.917zM767.999 469.335v-85.333h162.918v85.333h-162.918zM268.998 335.583l-141.167-81.417 42.667-73.916 141.167 81.502-42.667 73.83zM754.998 335.583l-42.667-73.83 141.167-81.502 42.667 73.916-141.167 81.417zM347.082 226.335l-81.5-141.167 73.917-42.667 81.416 141.167-73.832 42.667zM676.914 226.335l-73.83-42.667 81.417-141.167 73.916 42.667-81.502 141.167zM469.332 170.668v-162.918h85.333v162.918h-85.333z" />
<glyph unicode="&#xe945;" glyph-name="quick-view" d="M675.84 590.508v81.92h-327.68v-81.92h327.68zM512 467.627v81.921h163.84v-81.921h-163.84zM839.68 98.987c0-45.24-36.676-81.92-81.92-81.92h-491.52c-45.243 0-81.92 36.68-81.92 81.92v655.361c0 0 0 0 0 0 0 5.655 0.573 11.177 1.664 16.51 4.853 23.713 19.951 43.694 40.467 55.116 11.781 6.559 25.349 10.294 39.789 10.294h491.52c45.244 0 81.92-36.677 81.92-81.92v-655.361zM266.24 337.8v-238.813h491.52v238.809c-87.241-22.327-198.345-68.215-238.035-100.958-2.994-2.47-5.583-4.866-7.725-7.172-2.142 2.306-4.731 4.702-7.725 7.172-39.69 32.748-150.794 78.631-238.035 100.962zM757.76 422.047v332.302h-491.52v-332.302c41.873-9.417 86.723-23.773 125.915-38.396 35.51-13.246 70.542-28.283 100.246-43.504 6.304-3.232 12.911-6.738 19.599-10.502 6.689 3.764 13.296 7.27 19.599 10.502 29.704 15.221 64.737 30.257 100.246 43.504 39.195 14.623 84.042 28.979 125.915 38.396z" />
<glyph unicode="&#xe946;" glyph-name="read-only" d="M768.716 830.267c-10.486 0-20.976-4.013-28.963-12l-228.557-228.56 57.84-57.92 88.797 88.72 48.001-48-88.719-88.8 57.922-57.84 228.557 228.559c16.015 16.015 16.015 41.945 0 57.92l-105.918 105.92c-7.987 7.987-18.473 12-28.959 12zM166.314 818.267l-57.92-57.92 286.72-286.72-257.76-257.761v-163.84h163.84l257.761 257.761 286.72-286.72 57.917 57.922-286.72 286.72 0.242 0.238-57.922 57.922-0.238-0.242-48.001 48.001 0.242 0.242-57.922 57.918-0.242-0.24-286.719 286.72zM768.716 731.388l47.997-48-52.957-52.96-48.001 48 52.961 52.96zM453.033 415.706l48.001-47.997-233.76-233.763h-48v48.001l233.759 233.759z" />
<glyph unicode="&#xe947;" glyph-name="redo" d="M948.292 618.667l-154.249-154.249c-78.588 69.001-180.868 111.582-293.751 111.582-197.888 0-365.319-128.538-424.583-306.5l80.666-26.833c48.043 144.043 183.703 248 343.917 248 89.259 0 170.607-32.73 233.749-86.251l-169.749-169.749h384v384z" />
<glyph unicode="&#xe948;" glyph-name="repeat" d="M307.2 38.4l-163.84 163.84 163.84 163.84 57.344-59.392-63.488-63.488h415.744v163.84h81.92v-245.76h-497.664l63.488-63.488-57.344-59.392zM225.28 488.96v245.76h497.664l-63.488 63.488 57.344 59.392 163.84-163.84-163.84-163.84-57.344 59.392 63.488 63.488h-415.744v-163.84h-81.92z" />
<glyph unicode="&#xe949;" glyph-name="request-money" d="M921.6 447.146c0 225.855-183.747 409.601-409.6 409.601s-409.6-183.747-409.6-409.601c0-133.612 64.594-252.043 163.84-326.877v110.879c-50.831 57.754-81.92 133.218-81.92 215.998 0 180.676 147.005 327.681 327.68 327.681s327.68-147.005 327.68-327.681c0-82.78-31.089-158.245-81.92-215.998v-110.879c99.246 74.834 163.84 193.266 163.84 326.877zM675.84 160.426h-122.88v81.92h-81.92v-81.92h-122.88l163.84-163.84 163.84 163.84zM530.719 686.719v-58.6h-31.601v58.6h31.601zM526.721 360.119v-53.801h-31.601v53.801h31.601zM544.322 426.318c0 7.467-1.27 13.734-3.801 18.801-2.4 5.067-6.402 9.535-12.001 13.402s-13.001 7.664-22.2 11.399c-17.601 6.935-33.067 14.131-46.399 21.598-13.332 7.602-23.732 17.068-31.199 28.402s-11.2 25.866-11.2 43.599c0 16.534 4 30.867 12 43 7.998 12.267 19.066 21.733 33.201 28.4 14.266 6.667 30.732 10 49.398 10 14.266 0 27.267-2.134 39.002-6.4 11.731-4.267 21.799-10.4 30.2-18.4 8.532-8 15.065-17.867 19.599-29.6 4.534-11.6 6.799-24.866 6.799-39.8h-62.599c0 7.867-0.799 14.667-2.4 20.4-1.602 5.867-3.932 10.667-7 14.4-3.068 3.867-6.668 6.733-10.801 8.6-3.998 1.867-8.532 2.8-13.599 2.8-7.332 0-13.332-1.533-18.002-4.6-4.665-2.934-8.065-6.933-10.199-12s-3.199-10.734-3.199-17c0-6.4 1.135-12 3.4-16.8 2.4-4.8 6.402-9.2 12.001-13.201 5.599-3.998 13.267-8.065 22.999-12.198 17.334-7.066 32.666-14.533 45.998-22.401 13.337-7.733 23.736-17.265 31.203-28.598 7.598-11.203 11.399-25.67 11.399-43.401 0-17.334-4.067-32.068-12.202-44.2-7.999-12.132-19.263-21.402-33.8-27.8-14.397-6.267-31.064-9.4-50-9.4-12.665 0-25.199 1.602-37.597 4.801-12.268 3.334-23.47 8.733-33.599 16.2-10.136 7.467-18.202 17.4-24.202 29.798-6 12.403-9 27.603-9 45.601h62.599c0-9.335 1.135-17.134 3.4-23.4 2.4-6.132 5.534-11.067 9.4-14.799 4.002-3.6 8.466-6.201 13.402-7.799 5.067-1.602 10.265-2.4 15.598-2.4 7.602 0 13.869 1.466 18.801 4.399 4.936 2.933 8.602 6.865 11.002 11.801 2.4 5.067 3.6 10.666 3.6 16.798z" />
<glyph unicode="&#xe94a;" glyph-name="saving" d="M454.55 856.748c-79.176 0-143.36-64.184-143.36-143.36 0-27.181 7.981-52.343 21.12-74-122.003-31.241-186.329-116.88-212-194.719-4.461 1.626-9.171 2.466-13.92 2.478-10.863 0-21.282-4.313-28.963-11.997-7.681-7.68-11.997-18.1-11.997-28.963s4.316-21.279 11.997-28.963c7.682-7.68 18.1-11.997 28.963-11.997 0-47.677 16.024-96.268 44-141.038l32.24-193.36c3.277-19.743 20.371-34.243 40.4-34.243h94.4c20.029 0 37.123 14.459 40.4 34.243l4.88 29.278c41.492-14.131 86.106-22.561 132.8-22.561 28.467 0 56.095 2.339 82.801 6.64l16.638-27.677c7.414-12.37 20.705-19.923 35.123-19.923h90.718c25.846 0 45.199 23.605 40.161 48.959l-12.243 61.28c41.042 25.969 74.49 58.147 98.001 94.56h46.961c18.801 0 35.135 12.771 39.682 31.039l23.998 96.002c5.161 20.767-6.484 42.041-26.8 48.8l-58.479 19.522c-10.445 31.867-28.017 65.135-53.043 96.879 13.804 44.769 24.642 98.805 24.642 158.32l-228.319-25.36c-12.771 3.87-26.087 7.401-39.842 10.48 13.996 22.138 22.401 48.191 22.401 76.32 0 79.176-64.184 143.36-143.36 143.36zM454.55 774.828c33.874 0 61.44-27.566 61.44-61.44s-27.566-61.44-61.44-61.44c-33.874 0-61.44 27.566-61.44 61.44s27.566 61.44 61.44 61.44zM434.070 570.028c56.689 0 109.679-7.34 157.52-21.84l16.081-4.88 16.72 1.84 127.279 14.16c-2.99-13.804-6.619-27.714-10.879-41.6l-12.64-41.042 26.558-33.759c17.94-22.774 31.695-47.555 39.6-71.68l12.8-39.199 61.6-20.48-7.119-28.242h-59.519l-24.24-37.437c-16.876-26.132-42.078-50.303-72.962-69.841l-47.6-30.081 11.043-55.198 2.478-12.243h-17.519l-4.723 7.84-28.479 47.522-54.718-8.72c-23.347-3.768-46.821-5.681-69.841-5.681-35.267 0-71.012 6.119-106.32 18.162l-91.36 31.121-15.040-90.243h-25.12l-26.48 159.121-2.72 16.081-8.64 13.84c-20.644 33.055-31.52 66.834-31.52 97.677 0 2.048 6.676 204.801 245.76 204.801zM679.83 406.187c-22.61 0-40.96-18.35-40.96-40.96s18.35-40.96 40.96-40.96c22.61 0 40.96 18.35 40.96 40.96s-18.35 40.96-40.96 40.96z" />
<glyph unicode="&#xe94b;" glyph-name="search" d="M389.12 836.268c-157.866 0-286.72-128.854-286.72-286.72s128.854-286.721 286.72-286.721c71.598 0 137.011 26.706 187.359 70.402l17.441-17.441v-52.961l245.76-245.76 81.92 81.92-245.76 245.76h-52.961l-17.441 17.441c43.696 50.348 70.402 115.761 70.402 187.36 0 157.866-128.856 286.72-286.72 286.72zM389.12 754.348c113.594 0 204.8-91.207 204.8-204.8s-91.206-204.801-204.8-204.801c-113.593 0-204.8 91.21-204.8 204.801 0 113.593 91.207 204.8 204.8 204.8z" />
<glyph unicode="&#xe94c;" glyph-name="security" d="M512 877.228l-368.64-163.84c0 0 0-163.84 0-245.761 0-320.717 263.741-470.467 368.64-491.52 104.899 21.053 368.64 170.803 368.64 491.52 0 81.921 0 245.761 0 245.761l-368.64 163.84zM798.72 467.627c0-251.249-195.994-379.044-286.72-407.020-90.726 27.976-286.72 155.771-286.72 407.020v192.513l286.72 127.427 286.72-127.427v-192.513z" />
<glyph unicode="&#xe94d;" glyph-name="send-money" d="M491.521 856.908l-368.962-215.2c-25.068-14.623-40.64-41.76-40.64-70.8v-410.641c0-45.179 36.741-81.92 81.92-81.92h491.522v81.92h-491.522v319.521l327.682-203.919 327.68 203.919v-32.801h81.92v123.921c0 29.041-15.573 56.177-40.641 70.8l-368.959 215.2zM491.521 762.029l323.277-188.56-323.277-201.119-323.282 201.199 323.282 188.48zM819.201 406.027v-43.119c-22.098-4.694-70.562-21.787-70.562-86.479 0-110.1 124.801-77.48 124.801-150.962 0-36.782-26.075-37.679-31.359-37.679-4.833 0-36.643-2.359-36.643 53.92h-68.157c0-95.314 75.694-102.887 86.958-104.321h-5.038v-40.96h40.96v40.96h0.319c12.206 1.393 81.117 11.764 81.117 88.482 0 105.636-124.756 85.361-124.797 150.241 0 37.151 22.364 38.318 27.197 38.318 8.806 0 29.921-7.139 29.921-52.4h68.162c0 86.548-64.77 100.11-76.321 102.158l-5.599 0.164v41.677h-40.96z" />
<glyph unicode="&#xe94e;" glyph-name="send" d="M921.6 836.268l-819.2-297.84 521.359-521.361 297.841 819.201zM784.638 699.308l-193.917-533.36-136.962 136.958 207.2 272.722-272.719-207.198-136.96 136.958 533.358 193.92z" />
<glyph unicode="&#xe94f;" glyph-name="sessions" d="M512 836.267c-123.357 0-233.32-55.528-308.4-142.16l-101.2 101.2v-245.76h245.76l-86.96 86.96c60.133 71.778 150.022 117.84 250.8 117.84 180.675 0 327.68-147.005 327.68-327.68s-147.005-327.68-327.68-327.68c-180.675 0-327.68 147.005-327.68 327.68h-81.92c0-225.853 183.747-409.6 409.6-409.6s409.6 183.747 409.6 409.6c0 225.853-183.747 409.6-409.6 409.6zM471.040 672.427v-262.722l134.881-134.877 57.917 57.917-110.879 110.883v228.798h-81.92z" />
<glyph unicode="&#xe950;" glyph-name="setting" d="M420.383 836.266l-19.243-103.36c-32.351-12.731-62.059-30.576-88.090-52.88l-95.143 34.24-91.693-165.6 76.206-69.122c-2.929-18.768-4.447-36.159-4.447-52.879 0-16.74 1.563-34.103 4.447-52.879v-0.078l-76.206-69.12 91.693-165.523 95.067 34.161c26.033-22.315 55.808-40.059 88.167-52.797l19.243-103.363h183.235l19.243 103.363c32.371 12.739 62.046 30.556 88.089 52.879l95.142-34.243 91.619 165.523-76.132 69.198c2.929 18.768 4.448 36.164 4.448 52.879 0 16.695-1.528 34.066-4.448 52.802v0.078l76.206 69.202-91.693 165.52-95.064-34.16c-26.034 22.316-55.808 40.062-88.166 52.8l-19.243 103.36h-183.235zM485.088 754.346h53.821l15.258-81.92 40.94-16.16c24.678-9.705 46.846-23.029 66.085-39.52l33.886-28.96 75.44 27.040 26.911-48.56-60.26-54.72 6.902-45.040v-0.082c2.4-15.356 3.449-28.238 3.449-39.76 0-11.518-1.049-24.4-3.449-39.76l-6.975-45.040 60.26-54.718-26.911-48.64-75.366 27.12-33.96-29.041c-19.239-16.49-41.333-29.815-66.011-39.518h-0.078l-40.94-16.163-15.258-81.92h-53.744l-15.254 81.92-40.942 16.163c-24.677 9.703-46.848 23.028-66.087 39.518l-33.887 28.959-75.44-27.038-26.91 48.558 60.337 54.8-6.977 44.88v0.082c-2.366 15.421-3.45 28.344-3.45 39.838 0 11.522 1.050 24.4 3.45 39.76l6.977 45.040-60.337 54.722 26.91 48.64 75.44-27.12 33.887 29.040c19.239 16.491 41.41 29.815 66.087 39.52l40.942 16.16 15.254 81.92zM511.999 590.506c-86.22 0-157.012-73.871-157.012-163.841s70.792-163.84 157.012-163.84 157.016 73.871 157.016 163.84c0 89.971-70.795 163.841-157.016 163.841zM511.999 508.585c43.631 0 78.508-36.393 78.508-81.92 0-45.523-34.877-81.92-78.508-81.92-43.626 0-78.506 36.397-78.506 81.92 0 45.527 34.879 81.92 78.506 81.92z" />
<glyph unicode="&#xe951;" glyph-name="sorting-down" d="M469.333 812.167v-600.333l-195 194.999-64-64 301.667-301.666 301.666 301.666-64 64-194.999-194.999v600.333h-85.333z" />
<glyph unicode="&#xe952;" glyph-name="star" d="M983.040 532.438l-352.853 9.6-118.187 332.629-118.188-332.629-352.853-9.6 279.851-215.168-99.925-338.603 291.116 199.637 291.115-199.637-99.925 338.56 279.851 215.211zM512 281.771l-141.314-96.896 48.512 164.309-135.808 104.448 171.266 4.651 57.344 161.493 57.344-161.451 171.264-4.651-135.808-104.448 48.512-164.309-141.312 96.853z" />
<glyph unicode="&#xe953;" glyph-name="sign-in" d="M208.687 816.641c-47.363 0-86.661-39.298-86.661-86.661v-606.626c0-47.36 39.298-86.661 86.661-86.661h606.625c47.364 0 86.661 39.301 86.661 86.661v606.626c0 47.363-39.297 86.661-86.661 86.661h-606.625zM208.687 729.981h606.625v-606.626h-606.625v259.982h285.369l-99.353-99.352 61.271-61.274 203.961 203.956-203.961 203.958-61.271-61.272 99.353-99.356h-285.369v259.983z" />
<glyph unicode="&#xe954;" glyph-name="tax" d="M90.677 754.348c0 45.056 36.454 81.92 81.92 81.92h327.68l245.76-245.76v-227.837h-81.92v186.877h-204.8v204.8h-286.72v-655.361h17.5v-81.92h-17.5c-45.466 0-81.92 36.454-81.92 81.92v655.361zM407.324 308.268v-291.201h-58.2v291.201h58.2zM479.723 308.268v-48.599h-201.599v48.599h201.599zM595.124 256.27l-62.599-239.202h-61.8l91.001 291.201h38.597l-5.198-51.999zM644.522 17.067l-62.996 239.202-5.8 51.999h39.199l91.8-291.201h-62.202zM646.725 125.669v-48.599h-131.4v48.599h131.4zM786.125 308.268l41.599-97.198 39.6 97.198h64.598l-70.197-144.2 71.598-147.001h-67.199l-41.398 99.402-41.402-99.402h-65.798l72.798 148.201-71.201 143h67.002z" />
<glyph unicode="&#xe955;" glyph-name="terms-of-use" d="M266.24 836.268c-44.87 0-81.92-37.050-81.92-81.92v-655.361c0-44.868 37.050-81.92 81.92-81.92h491.52c44.872 0 81.92 37.052 81.92 81.92v655.361c0 44.772-37.147 81.92-81.92 81.92h-491.52zM266.24 754.348h491.52v-655.361h-491.52v655.361zM348.16 672.428v-81.92h327.68v81.92h-327.68zM448.799 508.587c-36.91 0-66.423-23.822-81.199-48.48-14.776-24.654-20.306-50.901-19.44-75.837 1.292-36.942 16.011-71.213 34.8-102.719-12.134-5.665-25.482-18.723-34.8-18.723v-81.92c34.254 0 64.318 13.709 92 31.683 21.971-17.928 46.473-31.683 76.96-31.683 41.988 0 69.689 23.589 89.281 44.642 2.92-6.001 2.486-11.723 7.438-17.523 13.828-16.183 37.855-27.12 62.001-27.12v122.642c0.033 5.399-1.004 10.748-3.052 15.745-2.044 4.997-5.054 9.544-8.86 13.369-3.809 3.83-8.335 6.869-13.32 8.942-4.985 2.077-10.33 3.142-15.729 3.142-24.564 0-42.406-13.808-53.441-24.879s-18.649-21.914-26.161-31.039c-15.024-18.256-22.987-26.001-38.158-26.001-1.462 0-9.163 7.86-12.558 9.359 26.763 33.46 47.608 70.828 48.398 112.722 0 0.029 0 0.053 0 0.082 0.455 24.949-6.382 49.996-21.68 74.4s-44.302 49.197-82.481 49.197zM448.799 426.667c4.383 0 7.246-1.552 13.042-10.797s9.277-25.149 9.2-29.442c-0.201-9.871-14.393-27.578-22.798-43.36-6.55 15.614-17.732 31.76-18.162 44.081-0.281 8.077 2.937 22.831 7.762 30.88 4.821 8.049 5.763 8.638 10.957 8.638z" />
<glyph unicode="&#xe956;" glyph-name="tour" d="M266.24 836.268c-21.726 0-42.563-8.631-57.926-23.994s-23.994-36.2-23.994-57.926c0-21.726 8.631-42.563 23.994-57.926s36.2-23.994 57.926-23.994c21.726 0 42.563 8.631 57.926 23.994s23.994 36.2 23.994 57.926c0 21.726-8.631 42.563-23.994 57.926s-36.2 23.994-57.926 23.994zM430.080 795.308v-81.92h368.64v-368.641h-327.68v-81.92h95.838l105.361-245.76h89.121l-105.361 245.76h163.201c33.874 0 61.44 27.566 61.44 61.44v409.601c0 33.874-27.566 61.44-61.44 61.44h-389.12zM225.28 631.468c-45.261 0-81.92-36.659-81.92-81.92v-532.481h81.92v245.76h81.92v-245.76h81.92v532.481h245.76v81.92h-409.6zM225.28 549.548h81.92v-204.801h-81.92v204.801z" />
<glyph unicode="&#xe957;" glyph-name="transfer" d="M757.76 795.307v-122.88h-655.36v-81.92h655.36v-122.881l163.84 163.841-163.84 163.84zM266.24 385.706l-163.84-163.84 163.84-163.84v122.88h655.36v81.92h-655.36v122.88z" />
<glyph unicode="&#xe958;" glyph-name="travel" d="M348.16 17.066h81.92l204.677 327.68h204.923c45.261 0 81.92 36.659 81.92 81.92s-36.659 81.92-81.92 81.92h-204.923l-204.677 327.681h-81.92l102.113-327.681h-225.157l-61.276 81.921h-61.44l40.96-163.841-40.96-163.84h61.44l61.276 81.92h225.157l-102.113-327.68z" />
<glyph unicode="&#xe959;" glyph-name="type-in" d="M205.776 120.444v301.696h84.476l0.754-156.126 306.98 306.977 60.339-60.34-306.979-306.977 156.131-0.755v-84.476h-301.701zM89.622 508.126c8.548 40.73 22.627 79.447 42.237 116.154s44.249 69.894 73.917 99.561c41.735 41.735 88.875 73.036 141.421 93.904s105.973 31.301 160.279 31.301c54.302 0 107.729-10.434 160.277-31.301 52.544-20.868 99.686-52.169 141.419-93.904 41.737-41.735 73.037-88.876 93.905-141.422s31.3-105.973 31.3-160.279c0-54.302-10.432-107.729-31.3-160.277-20.868-52.544-52.169-99.686-93.905-141.419-29.666-29.666-62.852-54.306-99.558-73.916s-75.426-33.69-116.156-42.24v87.492c29.666 7.543 57.574 18.859 83.721 33.941 26.15 15.087 50.031 33.438 71.654 55.061 67.379 67.379 101.069 147.831 101.069 241.357 0 93.529-33.69 173.982-101.069 241.361s-147.831 101.069-241.357 101.069c-93.529 0-173.982-33.69-241.361-101.069-21.622-21.622-39.975-45.506-55.060-71.654s-26.399-54.054-33.941-83.721h-87.492z" />
<glyph unicode="&#xe95a;" glyph-name="type-out" d="M818.223 732.89v-301.701h-84.476l-0.755 156.131-306.977-306.979-60.34 60.339 306.977 306.979-156.13 0.754v84.475h301.7zM934.379 345.208c-8.55-40.73-22.63-79.45-42.24-116.156s-44.25-69.892-73.916-99.558c-41.732-41.737-88.875-73.037-141.419-93.905-52.548-20.868-105.975-31.3-160.282-31.3-54.302 0-107.729 10.432-160.276 31.3s-99.686 52.169-141.421 93.905c-41.735 41.732-73.036 88.875-93.904 141.419-20.867 52.548-31.301 105.971-31.301 160.277s10.434 107.733 31.301 160.279c20.867 52.546 52.169 99.686 93.904 141.421 29.667 29.667 62.854 54.306 99.561 73.917s75.425 33.69 116.154 42.238v-87.493c-29.667-7.543-57.574-18.857-83.721-33.941s-50.032-33.438-71.654-55.060c-67.379-67.379-101.069-147.832-101.069-241.361 0-93.525 33.69-173.978 101.069-241.357s147.832-101.069 241.357-101.069c93.53 0 173.982 33.69 241.361 101.069 21.623 21.619 39.974 45.504 55.061 71.654 15.083 26.146 26.398 54.054 33.941 83.721h87.492z" />
<glyph unicode="&#xe95b;" glyph-name="upload" d="M512 862.166l-316.333-316.333h188.333v-277.333c0-34.863 29.139-64 64-64h128c34.863 0 64 29.137 64 64v277.333h188.335l-316.335 316.333zM512 741.5l110.332-110.333h-67.665v-341.333h-85.333v341.333h-67.667l110.333 110.333zM85.333 76.5v-85.333h853.333v85.333h-853.333z" />
<glyph unicode="&#xe95c;" glyph-name="usd-currenty" d="M292.652 601.668h67.385v-240.384c0-26.923-4.769-48.88-14.308-65.867-9.385-16.825-22.385-29.164-39-37.018-16.616-7.692-35.616-11.54-57-11.54-21.538 0-40.692 3.848-57.461 11.54-16.769 7.853-29.846 20.192-39.231 37.018-9.231 16.987-13.846 38.944-13.846 65.867v240.384h67.385v-240.384c0-15.226 1.616-26.923 4.846-35.096 3.385-8.176 8.231-13.785 14.538-16.829 6.461-2.883 14.384-4.324 23.769-4.324 9.539 0 17.385 1.441 23.539 4.324 6.308 3.044 11.077 8.653 14.308 16.829 3.385 8.172 5.077 19.87 5.077 35.096v240.384zM553.881 343.735c0 6.25-0.536 11.941-1.615 17.069-1.075 5.128-3.383 9.854-6.92 14.182-3.387 4.324-8.385 8.653-15.002 12.981-6.463 4.324-14.923 8.814-25.383 13.462-12.461 5.447-24.541 11.217-36.234 17.306-11.689 6.25-22.229 13.462-31.614 21.634-9.385 8.176-16.846 17.79-22.384 28.849-5.385 11.217-8.077 24.355-8.077 39.42 0 14.745 2.538 28.126 7.615 40.146 5.231 12.019 12.614 22.276 22.153 30.769 9.539 8.654 20.693 15.304 33.461 19.952 12.926 4.647 27.309 6.971 43.154 6.971 21.539 0 40.157-4.647 55.847-13.942 15.848-9.295 28.077-22.035 36.695-38.221 8.767-16.186 13.151-34.777 13.151-55.769h-67.383c0 9.937-1.386 18.668-4.155 26.201-2.615 7.692-6.845 13.702-12.69 18.029-5.849 4.327-13.387 6.491-22.619 6.491-8.613 0-15.766-1.843-21.461-5.529-5.537-3.526-9.693-8.414-12.461-14.664-2.615-6.090-3.923-12.982-3.923-20.674 0-5.77 1.308-10.976 3.923-15.624 2.769-4.486 6.538-8.574 11.307-12.26 4.769-3.525 10.386-6.971 16.849-10.335 6.613-3.367 13.844-6.652 21.689-9.858 15.234-6.25 28.696-13.139 40.385-20.673 11.693-7.373 21.465-15.703 29.31-24.997 7.845-9.137 13.769-19.472 17.766-31.011 4.001-11.54 6.002-24.678 6.002-39.424 0-14.584-2.462-27.884-7.385-39.904-4.769-11.859-11.768-22.114-21-30.767-9.232-8.495-20.385-15.065-33.461-19.712-12.922-4.647-27.384-6.971-43.386-6.971-15.537 0-30.232 2.245-44.075 6.731-13.848 4.647-26.077 11.618-36.695 20.913-10.461 9.456-18.691 21.394-24.691 35.816-6 14.584-9 31.811-9 51.684h67.617c0-10.579 0.996-19.633 2.997-27.164 2.001-7.373 5.077-13.3 9.232-17.79 4.155-4.324 9.232-7.609 15.23-9.854 6.156-2.083 13.154-3.127 21-3.127 8.925 0 16.002 1.764 21.232 5.289 5.384 3.525 9.232 8.255 11.54 14.182 2.308 5.931 3.458 12.662 3.458 20.192zM754.652 251.67h-59.309l0.465 58.171h58.845c16.309 0 28.999 3.044 38.077 9.137 9.078 6.089 15.462 15.703 19.153 28.845 3.848 13.139 5.77 30.369 5.77 51.68v54.567c0 16.187-1 29.889-3.001 41.106-1.997 11.378-5.384 20.515-10.153 27.405-4.769 7.051-11.154 12.26-19.153 15.625s-17.924 5.048-29.771 5.048h-61.381v58.413h61.381c19.385 0 37.002-3.285 52.846-9.856 15.848-6.571 29.464-16.186 40.846-28.846 11.386-12.5 20.157-27.965 26.309-46.396 6.156-18.428 9.232-39.42 9.232-62.98v-54.087c0-23.717-3.076-44.709-9.232-62.98-6.152-18.271-14.923-33.733-26.309-46.395-11.229-12.497-24.844-22.036-40.846-28.605-15.998-6.569-33.922-9.854-53.768-9.854zM734.574 601.668v-349.999h-67.616v349.999h67.616z" />
<glyph unicode="&#xe95d;" glyph-name="visible" d="M512 754.347c-327.68 0-450.56-327.681-450.56-327.681s122.88-327.68 450.56-327.68c327.68 0 450.56 327.68 450.56 327.68s-122.88 327.681-450.56 327.681zM512 672.427c216.105 0 325.411-174.782 360.8-245.601-35.43-70.328-145.555-245.92-360.8-245.92-216.105 0-325.41 174.78-360.8 245.6 35.471 70.328 145.555 245.921 360.8 245.921zM512 590.507c-90.481 0-163.84-73.359-163.84-163.841s73.359-163.84 163.84-163.84 163.84 73.359 163.84 163.84c0 90.482-73.359 163.841-163.84 163.841zM512 508.586c45.261 0 81.92-36.659 81.92-81.92s-36.659-81.92-81.92-81.92c-45.261 0-81.92 36.659-81.92 81.92s36.659 81.92 81.92 81.92z" />
<glyph unicode="&#xe95e;" glyph-name="waiting" d="M512 853.334c-235.136 0-426.667-191.531-426.667-426.667s191.531-426.667 426.667-426.667c235.136 0 426.667 191.531 426.667 426.667s-191.531 426.667-426.667 426.667zM512 768c189.018 0 341.333-152.315 341.333-341.333s-152.316-341.333-341.333-341.333c-189.018 0-341.333 152.316-341.333 341.333s152.315 341.333 341.333 341.333zM469.333 682.667v-273.668l183.168-183.164 60.331 60.331-158.165 158.17v238.332h-85.333z" />
<glyph unicode="&#xe95f;" glyph-name="warning" d="M512.008 810.042c-24.030 0-48.051-11.197-61.5-33.583l-375.335-624.418c-27.658-45.995 7.729-108.749 61.417-108.749h750.749c53.675 0 89.161 62.754 61.5 108.749l-375.33 624.418c-13.453 22.386-37.474 33.583-61.5 33.583zM512.008 713.209l351.415-584.583h-702.834l351.418 584.583zM469.342 555.292v-213.333h85.333v213.333h-85.333zM469.342 256.625v-85.333h85.333v85.333h-85.333z" />
<glyph unicode="&#xe960;" glyph-name="sms" d="M228.655 343.482c0 6.269-0.561 11.972-1.685 17.117s-3.536 9.887-7.23 14.223c-3.536 4.342-8.76 8.678-15.669 13.020-6.751 4.342-15.59 8.836-26.522 13.502-13.020 5.466-25.634 11.25-37.846 17.359-12.216 6.269-23.225 13.502-33.028 21.696s-17.599 17.841-23.386 28.931c-5.624 11.25-8.439 24.431-8.439 39.539 0 14.787 2.651 28.206 7.957 40.261 5.466 12.055 13.181 22.339 23.144 30.858 9.963 8.678 21.619 15.347 34.958 20.013 13.502 4.663 28.528 6.993 45.084 6.993 22.5 0 41.948-4.663 58.342-13.984 16.556-9.318 29.333-22.101 38.331-38.33 9.16-16.235 13.741-34.878 13.741-55.93h-70.4c0 9.963-1.448 18.725-4.342 26.277-2.733 7.712-7.154 13.741-13.257 18.082s-13.984 6.51-23.627 6.51c-8.999 0-16.473-1.848-22.422-5.545-5.787-3.536-10.124-8.439-13.023-14.705-2.733-6.106-4.097-13.020-4.097-20.729 0-5.787 1.364-11.011 4.097-15.666 2.894-4.5 6.832-8.602 11.814-12.296 4.984-3.536 10.848-6.992 17.599-10.366 6.909-3.378 14.468-6.671 22.661-9.887 15.911-6.269 29.975-13.18 42.193-20.729 12.215-7.393 22.422-15.753 30.621-25.076 8.196-9.16 14.381-19.529 18.565-31.103s6.269-24.755 6.269-39.539c0-14.629-2.575-27.967-7.712-40.021-4.984-11.894-12.296-22.177-21.938-30.858-9.642-8.521-21.298-15.108-34.958-19.77-13.502-4.663-28.607-6.989-45.323-6.989-16.235 0-31.585 2.254-46.048 6.751-14.468 4.663-27.241 11.651-38.33 20.977-10.929 9.482-19.529 21.456-25.795 35.921-6.269 14.629-9.405 31.906-9.405 51.833h70.637c0-10.607 1.045-19.692 3.133-27.241 2.091-7.393 5.303-13.341 9.639-17.841 4.342-4.342 9.642-7.636 15.911-9.887 6.427-2.091 13.741-3.133 21.938-3.133 9.318 0 16.714 1.772 22.178 5.303 5.624 3.536 9.642 8.281 12.055 14.223s3.615 12.698 3.615 20.25zM378.913 602.166h61.96l71.601-240.123 71.364 240.123h54.724l-99.808-351.021h-52.801l-107.044 351.021zM353.841 602.166h59.065l9.162-231.442v-119.58h-68.228v351.021zM611.563 602.166h59.305v-351.021h-67.983v119.58l8.678 231.442zM884.050 343.482c0 6.269-0.561 11.972-1.685 17.117s-3.534 9.887-7.23 14.223c-3.534 4.342-8.756 8.678-15.666 13.020-6.751 4.342-15.59 8.836-26.518 13.502-13.023 5.466-25.634 11.25-37.852 17.359-12.211 6.269-23.225 13.502-33.028 21.696s-17.597 17.841-23.386 28.931c-5.624 11.25-8.439 24.431-8.439 39.539 0 14.787 2.651 28.206 7.957 40.261 5.466 12.055 13.181 22.339 23.149 30.858 9.963 8.678 21.619 15.347 34.958 20.013 13.502 4.663 28.526 6.993 45.084 6.993 22.499 0 41.948-4.663 58.343-13.984 16.556-9.318 29.332-22.101 38.33-38.33 9.162-16.235 13.742-34.878 13.742-55.93h-70.4c0 9.963-1.447 18.725-4.342 26.277-2.729 7.712-7.154 13.741-13.257 18.082-6.106 4.342-13.984 6.51-23.631 6.51-8.999 0-16.469-1.848-22.422-5.545-5.787-3.536-10.121-8.439-13.023-14.705-2.729-6.106-4.094-13.020-4.094-20.729 0-5.787 1.367-11.011 4.094-15.666 2.894-4.5 6.833-8.602 11.814-12.296 4.984-3.536 10.848-6.992 17.597-10.366 6.909-3.378 14.468-6.671 22.663-9.887 15.911-6.269 29.973-13.18 42.193-20.729 12.22-7.393 22.422-15.753 30.621-25.076 8.196-9.16 14.381-19.529 18.559-31.103s6.269-24.755 6.269-39.539c0-14.629-2.575-27.967-7.715-40.021-4.984-11.894-12.296-22.177-21.938-30.858-9.639-8.521-21.298-15.108-34.958-19.77-13.502-4.663-28.607-6.989-45.321-6.989-16.235 0-31.585 2.254-46.048 6.751-14.463 4.663-27.24 11.651-38.33 20.977-10.929 9.482-19.529 21.456-25.795 35.921-6.269 14.629-9.405 31.906-9.405 51.833h70.637c0-10.607 1.045-19.692 3.133-27.241 2.091-7.393 5.303-13.341 9.647-17.841 4.342-4.342 9.639-7.636 15.911-9.887 6.427-2.091 13.741-3.133 21.937-3.133 9.326 0 16.714 1.772 22.178 5.303 5.624 3.536 9.647 8.281 12.055 14.223 2.412 5.948 3.619 12.698 3.619 20.25z" />
<glyph unicode="&#xe961;" glyph-name="work" d="M170.665 810.666c-46.637 0-85.332-38.695-85.332-85.332v-682.666h853.334v512c0 46.637-38.693 85.332-85.332 85.332h-170.667v85.332c0 46.637-38.693 85.332-85.332 85.332h-426.665zM170.665 725.328h426.665v-597.334h-426.665v597.334zM255.997 639.996v-85.332h85.332v85.332h-85.332zM426.666 639.996v-85.332h85.332v85.332h-85.332zM682.665 554.665h170.667v-426.665h-170.667v85.332h85.332v85.332h-85.332v85.332h85.332v85.332h-85.332v85.332zM255.997 469.333v-85.332h85.332v85.332h-85.332zM426.666 469.333v-85.332h85.332v85.332h-85.332zM255.997 298.663v-85.332h85.332v85.332h-85.332zM426.666 298.663v-85.332h85.332v85.332h-85.332z" />
<glyph unicode="&#xe962;" glyph-name="grid" d="M127.998 469.336h341.333v341.333h-341.333zM213.334 725.333h170.668v-170.668h-170.668zM554.669 42.665h341.333v341.333h-341.333zM640.001 298.666h170.668v-170.668h-170.668zM127.998 42.665h341.333v341.333h-341.333zM213.334 298.666h170.668v-170.668h-170.668zM554.669 810.669v-341.333h341.333v341.333zM810.666 554.668h-170.668v170.668h170.668v-170.668z" />
<glyph unicode="&#xe963;" glyph-name="success" d="M512 853.335c-235.135 0-426.668-191.532-426.668-426.668s191.532-426.668 426.668-426.668c235.135 0 426.668 191.532 426.668 426.668s-191.532 426.668-426.668 426.668zM512 767.997c189.017 0 341.33-152.314 341.33-341.33s-152.315-341.33-341.33-341.33c-189.018 0-341.33 152.315-341.33 341.33s152.314 341.33 341.33 341.33zM695.172 584.835l-268.502-268.498-97.832 97.829-60.332-60.329 158.168-158.172 328.83 328.834-60.329 60.332z" />
<glyph unicode="&#xe964;" glyph-name="request-anything" d="M382.12 98.429h19.006c0 7.382-4.274 14.096-10.961 17.219-6.689 3.126-14.58 2.095-20.242-2.639l12.194-14.58zM330.722 55.443l8.462-17.020c1.334 0.666 2.587 1.483 3.731 2.44l-12.192 14.58zM287.86 62.183l-13.316-13.564 0.112-0.109 13.202 13.671zM214.011 134.679l13.316 13.564c-0.18 0.176-0.364 0.352-0.552 0.522l-12.764-14.083zM214.011 225.753l12.243 14.538c-3.882 3.268-8.909 4.851-13.96 4.391-5.054-0.462-9.712-2.921-12.943-6.834l14.66-12.095zM306.786 152.893l-10.581-15.789c5.788-3.878 13.234-4.277 19.404-1.045l-8.823 16.834zM419.043 207.538v19.006c-0.239 0-0.48-0.004-0.716-0.012l0.716-18.994zM530.376 207.538l0.716 18.994c-0.239 0.011-0.478 0.012-0.716 0.012v-19.006zM641.708 152.893l-8.824-16.834c6.171-3.232 13.616-2.832 19.405 1.045l-10.581 15.789zM734.482 225.753l14.662 12.095c-3.231 3.913-7.889 6.372-12.944 6.834-5.053 0.459-10.081-1.123-13.96-4.391l12.242-14.538zM734.482 134.679l-12.764 14.083c-0.187-0.17-0.371-0.343-0.551-0.522l13.315-13.564zM660.633 62.183v0zM617.77 55.443l-12.324-14.47c1.18-1.006 2.476-1.86 3.863-2.552l8.461 17.020zM567.302 98.429l12.324 14.47c-5.644 4.808-13.566 5.895-20.293 2.786s-11.038-9.844-11.038-17.259h19.006zM753.219 426.242v19.006c-5.509 0-10.749-2.39-14.36-6.552l14.36-12.456zM646.897 303.657l13.315-13.566c0.362 0.358 0.71 0.729 1.043 1.113l-14.358 12.454zM623.332 426.242h19.006c0 10.497-8.509 19.006-19.006 19.006v-19.006zM525.549 639.541l-11.717 14.967-0.025-0.019 11.742-14.949zM474.888 243.366c54.141 0 93.226 44.673 93.226 97.148h-38.013c0-33.863-24.372-59.135-55.214-59.135v-38.013zM568.119 340.515v26.047h-38.013v-26.047h38.013zM568.119 366.563c0 52.475-39.085 97.15-93.226 97.15v-38.013c30.842 0 55.214-25.272 55.214-59.139h38.013zM474.888 463.713c-54.141 0-93.226-44.675-93.226-97.15h38.013c0 33.865 24.374 59.139 55.214 59.139v38.013zM381.663 366.563v-26.047h38.013v26.047h-38.013zM381.663 340.515c0-52.475 39.085-97.148 93.226-97.148v38.013c-30.84 0-55.214 25.272-55.214 59.135h-38.013zM401.126-10.861v109.29h-38.013v-109.29h38.013zM369.924 113.011l-51.397-42.988 24.388-29.158 51.399 42.986-24.39 29.16zM322.259 72.465c-6.921-3.439-15.532-2.081-21.197 3.395l-26.405-27.346c16.972-16.388 42.873-20.854 64.529-10.086l-16.926 34.039zM301.177 75.746l-73.849 72.494-26.632-27.126 73.849-72.496 26.632 27.128zM226.771 148.762c-19.76 17.909-20.893 25.932-20.5 29.82 0.272 2.688 1.546 6.574 5.383 12.686 3.875 6.167 9.448 13.219 17.013 22.385l-29.32 24.193c-7.465-9.048-14.53-17.844-19.883-26.362-5.383-8.57-9.92-18.213-11.019-29.093-2.346-23.25 11.554-42.55 32.799-61.802l25.523 28.17zM201.769 211.215c37.9-31.917 74.208-60.554 94.437-74.111l21.163 31.577c-18.365 12.309-53.31 39.775-91.113 71.61l-24.486-29.076zM315.609 136.059c7.107 3.724 15.596 9.202 24.039 14.675 8.759 5.675 18.037 11.725 27.692 17.406 20.049 11.804 38.319 19.874 52.423 20.406l-1.433 37.988c-24.489-0.924-50.011-13.709-70.274-25.63-10.499-6.182-20.51-12.711-29.081-18.267-8.89-5.759-15.781-10.163-21.011-12.904l17.646-33.67zM419.043 188.53h111.333v38.013h-111.333v-38.013zM529.659 188.545c14.060-0.53 32.076-8.566 51.877-20.356 9.54-5.679 18.695-11.72 27.382-17.408 8.365-5.474 16.817-10.975 23.964-14.72l17.645 33.67c-5.189 2.719-11.999 7.102-20.791 12.856-8.469 5.545-18.369 12.083-28.754 18.265-20.047 11.936-45.355 24.755-69.89 25.681l-1.433-37.988zM652.289 137.105c20.233 13.56 56.537 42.197 94.437 74.111l-24.486 29.076c-37.808-31.838-72.752-59.303-91.111-71.61l21.162-31.577zM719.823 213.656c7.564-9.167 13.137-16.218 17.013-22.385 3.842-6.115 5.116-9.999 5.386-12.686 0.392-3.888-0.74-11.911-20.502-29.82l25.525-28.17c21.244 19.249 35.143 38.549 32.799 61.802-1.098 10.881-5.633 20.523-11.019 29.093-5.35 8.518-12.419 17.314-19.882 26.362l-29.321-24.193zM721.167 148.243l-73.849-72.494 26.632-27.128 73.849 72.496-26.632 27.126zM647.318 75.746c-5.513-5.413-14.020-6.798-21.085-3.285l-16.927-34.039c21.51-10.695 47.515-6.615 64.64 10.196l-26.632 27.128zM630.097 69.913l-50.471 42.988-24.648-28.94 50.469-42.986 24.65 28.938zM548.293 98.429v-109.29h38.013v109.29h-38.013zM363.558 445.249h-148.44v-38.013h148.44v38.013zM215.118 445.249c-10.245 0-18.103 8.213-18.103 17.422h-38.013c0-30.863 25.545-55.438 56.118-55.438v38.013zM197.012 462.67v346.085h-38.013v-346.085h38.013zM197.012 808.759c0 9.209 7.857 17.422 18.103 17.422v38.013c-30.574 0-56.118-24.574-56.118-55.437h38.013zM215.118 826.18h593.767v38.013h-593.767v-38.013zM808.882 826.18c10.245 0 18.101-8.213 18.101-17.422h38.013c0 30.863-25.543 55.437-56.117 55.437v-38.013zM826.986 808.759v-346.085h38.013v346.085h-38.013zM826.986 462.67c0-9.209-7.856-17.422-18.101-17.422v-38.013c30.574 0 56.117 24.575 56.117 55.438h-38.013zM808.882 445.249h-55.666v-38.013h55.666v38.013zM738.858 438.695l-106.321-122.588 28.718-24.909 106.321 122.586-28.718 24.909zM633.582 317.221c1.568 1.542 3.884 1.68 5.367 1.081 0.731-0.296 1.565-0.854 2.258-1.816 0.76-1.057 1.131-2.302 1.131-3.356h-38.013c0-29.795 35.805-42.75 55.886-23.037l-26.63 27.128zM642.339 313.127v113.115h-38.013v-113.115h38.013zM623.332 445.249h-37.112v-38.013h37.112v38.013zM474.441 553.847v-36.432h38.013v36.432h-38.013zM512.457 571.963v28.781h-38.013v-28.781h38.013zM512.457 600.742c0 2.744 0.557 4.353 3.723 7.447 1.946 1.904 4.542 3.98 8.289 6.779 3.455 2.579 8.178 5.979 12.823 9.626l-23.479 29.895c-4.171-3.274-7.866-5.91-12.081-9.058-3.924-2.926-8.254-6.27-12.127-10.059-8.48-8.292-15.16-19.16-15.16-34.629h38.013zM537.263 624.573c15.898 12.438 30.857 29.734 30.857 56.678h-38.013c0-10.215-4.706-17.693-16.273-26.745l23.431-29.934zM568.124 681.253c0 42.522-32.223 73.653-74.673 73.653v-38.013c22.121 0 36.661-14.772 36.661-35.637h38.013zM493.45 754.905c-20.416 0-39.383-6.361-53.37-19.765-14.099-13.51-21.302-32.428-21.302-53.887h38.013c0 12.788 4.113 21.192 9.592 26.443 5.588 5.357 14.454 9.197 27.065 9.197v38.013zM418.775 681.253v-17.854h38.013v17.854h-38.013z" />
<glyph unicode="&#xe965;" glyph-name="short-wait-time" d="M519.539 888.851l24.376-24.726-66.371-65.431 66.371-65.431-24.376-24.725-91.451 90.156 91.451 90.157zM452.817 816.032h59.183c238.195 0 431.641-190.354 431.641-425.775s-193.446-425.774-431.641-425.774c-238.195 0-431.641 190.353-431.641 425.774 0 187.526 122.895 346.585 293.176 403.487l11.005-32.931c-156.803-52.397-269.458-198.677-269.458-370.557 0-215.78 177.433-391.054 396.92-391.054s396.92 175.274 396.92 391.054c0 215.78-177.433 391.055-396.92 391.055h-59.183v34.72zM171.673 429.189l281.117 277.137 83.874-82.683-281.119-277.139-83.872 82.685zM221.124 429.189l34.419-33.935 231.669 228.387-34.422 33.933-231.667-228.385zM484.732 597.116l64.356-63.444v-106.594h108.123l64.252-63.342-24.376-24.725-54.113 53.347h-128.608v126.788l-54.012 53.245 24.376 24.725zM282.809 397.362l24.374 24.727 54.113-53.349h128.609v-126.786l54.010-53.245-24.376-24.727-64.356 63.445v106.593h-108.125l-64.25 63.342zM467.651 137.452l281.117 277.137 83.874-82.683-281.119-277.139-83.872 82.685zM517.103 137.452l34.42-33.935 231.667 228.387-34.42 33.935-231.667-228.387z" />
<glyph unicode="&#xe966;" glyph-name="list" d="M113.066 755.201v-657.068h797.867v657.068h-797.867zM300.796 661.333v-93.868h-93.868v93.868h93.868zM206.932 379.733v93.868h93.868v-93.868h-93.868zM206.932 285.864h93.868v-93.868h-93.868v93.868zM817.064 191.995h-422.399v93.868h422.399v-93.868zM817.064 379.733h-422.399v93.868h422.399v-93.868zM817.064 567.465h-422.399v93.868h422.399v-93.868z" />
<glyph unicode="&#xe967;" glyph-name="help-bills" d="M250.56 21.334c-29.726 0-54.889 10.302-75.494 30.906s-30.906 45.768-30.906 75.494v126.666h128.694v577.6l60.8-60.8 60.8 60.8 59.786-60.8 60.8 60.8 60.8-60.8 60.8 60.8 60.8-60.8 60.8 60.8 60.8-60.8 60.8 60.8v-704.266c0-29.726-10.302-54.888-30.906-75.494s-45.768-30.906-75.494-30.906h-522.88zM773.44 82.134c13.512 0 24.488 4.222 32.934 12.666s12.666 19.422 12.666 32.934v602.934h-485.386v-476.266h394.186v-126.666c0-13.512 4.222-24.488 12.666-32.934s19.422-12.666 32.934-12.666zM387.36 570.562v60.8h243.2v-60.8h-243.2zM387.36 434.774v60.8h243.2v-60.8h-243.2zM724.8 570.562c-8.106 0-15.2 3.040-21.28 9.12s-9.12 13.174-9.12 21.28c0 8.106 3.040 15.2 9.12 21.28s13.174 9.12 21.28 9.12c8.106 0 15.2-3.040 21.28-9.12s9.12-13.174 9.12-21.28c0-8.106-3.040-15.2-9.12-21.28s-13.174-9.12-21.28-9.12zM724.8 439.842c-8.106 0-15.2 3.040-21.28 9.12s-9.12 13.174-9.12 21.28c0 8.106 3.040 15.2 9.12 21.28s13.174 9.12 21.28 9.12c8.106 0 15.2-3.040 21.28-9.12s9.12-13.174 9.12-21.28c0-8.106-3.040-15.2-9.12-21.28s-13.174-9.12-21.28-9.12zM249.546 82.134h417.494v111.466h-462.080v-65.866c0-13.512 4.222-24.488 12.666-32.934s19.086-12.666 31.92-12.666z" />
<glyph unicode="&#xe968;" glyph-name="help-security" d="M693.867 202.135c18.49 0 34.133 6.754 46.933 20.267 12.8 13.51 19.2 29.51 19.2 48 0 18.487-6.4 34.133-19.2 46.933s-28.444 19.2-46.933 19.2c-18.49 0-34.49-6.4-48-19.2s-20.267-28.446-20.267-46.933c0-18.49 6.756-34.49 20.267-48 13.51-13.513 29.51-20.267 48-20.267zM692.8 68.802c23.467 0 44.8 4.977 64 14.933 19.2 9.954 35.556 24.177 49.067 42.667-18.49 9.954-36.977 17.421-55.467 22.4-18.49 4.977-37.69 7.467-57.6 7.467s-39.29-2.49-58.133-7.467c-18.844-4.979-37.156-12.446-54.933-22.4 13.51-18.49 29.69-32.713 48.533-42.667 18.844-9.956 40.356-14.933 64.533-14.933zM468.8-0.532c-98.133 22.754-179.556 78.4-244.267 166.933s-97.067 190.044-97.067 304.533v254.933l341.333 128 341.333-128v-288c-9.956 4.977-20.623 9.421-32 13.333-11.377 3.91-22.044 6.577-32 8v221.867l-277.333 102.4-277.333-102.4v-210.133c0-54.046 8.71-103.823 26.133-149.333 17.423-45.513 39.644-85.513 66.667-120 27.023-34.49 56.89-63.113 89.6-85.867 32.71-22.756 64.356-39.11 94.933-49.067 4.267-8.533 10.667-18.133 19.2-28.8s15.644-18.846 21.333-24.533c-6.4-3.556-13.156-6.223-20.267-8s-13.867-3.733-20.267-5.867zM696-0.532c-55.467 0-102.756 19.733-141.867 59.2s-58.667 86.221-58.667 140.267c0 55.467 19.556 102.933 58.667 142.4s86.4 59.2 141.867 59.2c54.756 0 101.867-19.733 141.333-59.2s59.2-86.933 59.2-142.4c0-54.046-19.733-100.8-59.2-140.267s-86.577-59.2-141.333-59.2z" />
<glyph unicode="&#xe969;" glyph-name="help-deposit" d="M405.333 0.002c-16.161 0-29.9 5.657-41.211 16.97s-16.97 25.050-16.97 41.211v141.575h58.182v-54.303h426.667v562.425h-426.667v-54.303h-58.182v141.575c0 16.162 5.657 29.899 16.97 41.211s25.050 16.97 41.211 16.97h426.667c16.161 0 29.9-5.656 41.211-16.97s16.97-25.050 16.97-41.211v-736.971c0-16.161-5.657-29.9-16.97-41.211s-25.050-16.97-41.211-16.97h-426.667zM405.333 87.276v-29.090h426.667v29.090h-426.667zM405.333 766.062h426.667v29.090h-426.667v-29.090zM230.789 407.276h271.515v-58.182h-271.515v58.182zM676.85 310.305v232.728h-484.849v-232.728h484.849zM133.818 601.215h601.211v-349.090h-601.211v349.090zM230.789 504.244h135.757v-58.182h-135.757v58.182z" />
<glyph unicode="&#xe96a;" glyph-name="help-business" d="M168.421 42.668c-16.169 0-30.316 6.063-42.442 18.189s-18.189 26.273-18.189 42.442v494.147c0 16.169 6.063 30.316 18.189 42.442s26.273 18.189 42.442 18.189h192v91.958c0 16.169 6.063 30.316 18.189 42.442s26.273 18.189 42.442 18.189h181.895c16.169 0 30.316-6.063 42.442-18.189s18.189-26.273 18.189-42.442v-91.958h192c16.169 0 30.316-6.063 42.442-18.189s18.189-26.273 18.189-42.442v-494.147c0-16.169-6.063-30.316-18.189-42.442s-26.273-18.189-42.442-18.189h-687.158zM421.053 658.078h181.895v91.958h-181.895v-91.958zM855.579 296.309h-251.621v-60.632h-181.895v60.632h-253.642v-193.010h687.158v193.010zM482.695 296.309h60.632v60.632h-60.632v-60.632zM168.421 356.941h253.642v60.632h181.895v-60.632h251.621v240.506h-687.158v-240.506z" />
<glyph unicode="&#xe96b;" glyph-name="help-top" d="M859.296 469.966l-21.188 46.061-46.061 21.188 46.061 21.188 21.188 46.061 21.188-46.061 46.061-21.188-46.061-21.188-21.188-46.061zM742.304 631.178l-32.242 68.169-68.169 32.242 68.169 32.242 32.242 68.169 32.242-68.169 68.169-32.242-68.169-32.242-32.242-68.169zM373.819 21.335c-20.88 0-38.539 7.216-52.969 21.65s-21.65 32.089-21.65 52.969h149.235c0-20.88-7.216-38.539-21.65-52.969s-32.089-21.65-52.969-21.65zM224.581 153.070v55.273h298.473v-55.273h-298.473zM229.188 264.535c-40.534 26.407-72.623 59.419-96.266 99.031s-35.466 84.292-35.466 134.035c0 74.926 27.33 139.716 81.988 194.377s119.449 81.988 194.377 81.988c74.926 0 139.716-27.33 194.377-81.988s81.988-119.449 81.988-194.377c0-49.746-11.668-94.423-35.007-134.035s-55.581-72.624-96.727-99.031h-289.261zM249.454 319.808h249.65c29.478 19.654 52.816 45.139 70.012 76.461s25.793 65.099 25.793 101.334c0 60.8-21.65 112.85-64.946 156.146s-95.346 64.946-156.146 64.946c-60.8 0-112.85-21.65-156.146-64.946s-64.946-95.346-64.946-156.146c0-36.235 8.597-70.012 25.793-101.334s40.84-56.807 70.934-76.461z" />
<glyph unicode="&#xe96c;" glyph-name="help-gettingstarted" d="M603.907 10.668v231.219l-104.484 95.776-40.632-181.879-256.373 53.209 10.641 54.177 192.521-38.698 70.623 356.986-96.745-45.469v-129.637h-58.046v169.303l158.661 66.754c20.64 9.030 35.311 14.673 44.019 16.931s17.575 3.385 26.605 3.385c12.899 0 24.346-2.741 34.345-8.223s18.542-13.704 25.637-24.67l40.632-64.819c16.77-27.089 39.665-50.631 68.689-70.623s62.883-29.991 101.582-29.991v-58.046c-43.212 0-81.749 9.997-115.609 29.991s-65.302 49.984-94.326 89.972l-37.73-152.855 88.037-81.266v-281.526h-58.046zM608.744 701.422c-19.349 0-35.956 6.932-49.823 20.799s-20.799 30.474-20.799 49.823c0 19.349 6.932 35.956 20.799 49.823s30.474 20.799 49.823 20.799c19.349 0 35.956-6.932 49.823-20.799s20.799-30.474 20.799-49.823c0-19.349-6.932-35.956-20.799-49.823s-30.474-20.799-49.823-20.799z" />
<glyph unicode="&#xe96d;" glyph-name="open-in-new" d="M597.332 810.667v-85.333h153.173l-419.413-419.413 60.16-60.16 419.413 419.413v-153.173h85.333v298.667zM810.666 128h-597.333v597.333h298.667v85.333h-298.667c-47.36 0-85.333-38.4-85.333-85.333v-597.333c0-22.63 8.99-44.335 24.994-60.339s37.708-24.994 60.34-24.994h597.333c22.63 0 44.335 8.99 60.339 24.994s24.994 37.709 24.994 60.339v298.667h-85.333v-298.667z" />
<glyph unicode="&#xe96e;" glyph-name="phone" d="M851.2 42.666c-91.733 0-181.154 20.446-268.267 61.333-87.113 40.892-164.267 94.933-231.467 162.133s-121.245 144.358-162.133 231.467c-40.889 87.113-61.333 176.535-61.333 268.268 0 12.8 4.267 23.467 12.8 32s19.2 12.8 32 12.8h172.8c9.955 0 18.845-3.2 26.667-9.6s12.445-14.578 13.867-24.533l27.733-149.333c1.422-9.955 1.245-19.022-0.533-27.2s-5.867-15.467-12.267-21.867l-103.467-104.535c29.867-51.2 67.378-99.2 112.533-144 45.154-44.8 94.754-83.554 148.8-116.267l100.267 100.267c6.4 6.4 14.754 11.2 25.067 14.4s20.446 4.092 30.4 2.667l147.2-29.867c9.954-2.133 18.133-6.933 24.533-14.4s9.6-16.175 9.6-26.133v-172.8c0-12.8-4.267-23.467-12.8-32s-19.2-12.8-32-12.8zM257.067 554.667l70.4 70.4-18.133 100.267h-94.933c3.555-29.155 8.533-57.955 14.933-86.4s15.645-56.533 27.733-84.267zM638.933 172.799c27.733-12.087 56-21.687 84.8-28.8 28.8-7.108 57.779-11.733 86.933-13.867v93.867l-100.267 20.267-71.467-71.467z" />
<glyph unicode="&#xe96f;" glyph-name="rates" d="M473.6 128h74.667v53.333c35.554 6.4 66.133 20.267 91.733 41.6s38.4 52.979 38.4 94.933c0 29.867-8.533 57.246-25.6 82.133s-51.2 46.579-102.4 65.067c-42.667 14.221-72.179 26.667-88.533 37.333s-24.533 25.245-24.533 43.733c0 18.489 6.583 33.067 19.755 43.733 13.141 10.667 32.158 16 57.045 16 22.754 0 40.533-5.518 53.333-16.555 12.8-11.008 22.046-24.69 27.733-41.045l68.267 27.733c-7.821 24.889-22.217 46.578-43.179 65.067-20.992 18.489-44.288 28.8-69.888 30.933v53.333h-74.667v-53.333c-35.554-7.822-63.289-23.467-83.2-46.933s-29.867-49.778-29.867-78.933c0-33.422 9.785-60.446 29.355-81.067 19.541-20.621 50.291-38.4 92.245-53.333 44.8-16.354 75.917-30.933 93.355-43.733 17.408-12.8 26.112-29.513 26.112-50.133 0-23.467-8.363-40.704-25.088-51.712-16.695-11.038-36.779-16.555-60.245-16.555s-44.258 7.296-62.379 21.888c-18.146 14.562-31.488 36.425-40.021 65.579l-70.4-27.733c9.955-34.133 25.429-61.696 46.421-82.688 20.963-20.962 48.158-35.358 81.579-43.179v-55.467zM512 0c-59.021 0-114.489 11.209-166.4 33.621-51.911 22.387-97.067 52.779-135.467 91.179s-68.793 83.554-91.179 135.467c-22.414 51.913-33.621 107.379-33.621 166.4s11.207 114.489 33.621 166.4c22.386 51.911 52.779 97.067 91.179 135.467s83.555 68.807 135.467 91.221c51.911 22.386 107.379 33.579 166.4 33.579s114.487-11.193 166.4-33.579c51.913-22.414 97.067-52.821 135.467-91.221s68.791-83.555 91.179-135.467c22.413-51.911 33.621-107.379 33.621-166.4s-11.209-114.487-33.621-166.4c-22.387-51.913-52.779-97.067-91.179-135.467s-83.554-68.791-135.467-91.179c-51.913-22.413-107.379-33.621-166.4-33.621zM512 85.334c95.287 0 176 33.067 242.133 99.2s99.2 146.846 99.2 242.133c0 95.289-33.067 176-99.2 242.133s-146.846 99.2-242.133 99.2c-95.289 0-176-33.067-242.133-99.2s-99.2-146.845-99.2-242.133c0-95.287 33.067-176 99.2-242.133s146.845-99.2 242.133-99.2z" />
<glyph unicode="&#xe970;" glyph-name="Integrations" d="M512 0.001c-72.404 0-138.99 16.487-199.756 49.454-60.769 32.97-110.546 76.93-149.333 131.88v-103.756h-77.576v232.728h232.728v-77.577h-96c31.030-46.546 71.92-84.040 122.667-112.484 50.749-28.444 106.506-42.666 167.272-42.666 48.487 0 93.898 9.21 136.244 27.636 42.343 18.423 79.192 43.312 110.546 74.666s56.244 68.203 74.666 110.546c18.426 42.345 27.636 87.756 27.636 136.244h77.577c0-58.83-11.152-114.102-33.454-165.818-22.305-51.716-52.85-96.97-91.636-135.759-38.79-38.787-84.043-69.331-135.759-91.636-51.716-22.302-106.99-33.454-165.818-33.454zM85.333 426.668c0 58.83 11.151 114.102 33.454 165.818s52.85 96.97 91.636 135.757c38.789 38.788 84.040 69.332 135.757 91.636s106.99 33.454 165.818 33.454c72.404 0 138.99-16.486 199.759-49.454 60.768-32.97 110.546-76.93 149.331-131.879v103.757h77.577v-232.727h-232.728v77.574h96c-31.031 46.546-71.92 84.041-122.669 112.486-50.747 28.445-106.506 42.667-167.272 42.667-48.484 0-93.898-9.211-136.241-27.636-42.345-18.424-79.192-43.312-110.547-74.667s-56.243-68.202-74.667-110.547c-18.425-42.343-27.636-87.756-27.636-136.241h-77.576zM512 232.727l-60.12 133.818-133.818 60.123 133.818 61.090 60.12 132.848 61.090-132.848 132.85-61.090-132.85-60.123-61.090-133.818z" />
<glyph unicode="&#xe971;" glyph-name="connect" d="M798.719 308.891c14.933 36.267 23.040 75.093 23.040 117.76 0 30.72-4.693 60.16-12.8 87.467-27.733-6.4-56.747-9.813-87.040-9.813-62.037-0.068-123.183 14.783-178.283 43.297-55.095 28.514-102.532 69.856-138.304 120.543-38.268-92.594-110.459-167.074-201.813-208.213-1.707-10.667-1.707-22.187-1.707-33.28 0-40.734 8.023-81.071 23.612-118.703s38.436-71.829 67.24-100.634c58.171-58.172 137.070-90.85 219.335-90.85 44.8 0 87.893 9.813 126.72 27.307 24.32-46.507 35.413-69.547 34.56-69.547-69.973-23.467-124.16-34.987-161.28-34.987-103.253 0-201.813 40.533-274.347 113.493-44.117 43.981-76.912 98.005-95.573 157.44h-56.747v194.133h46.507c14.090 68.586 46.485 132.079 93.747 183.74s107.628 89.565 174.692 109.689c67.066 20.124 138.324 21.717 206.224 4.61 67.895-17.106 129.894-52.275 179.418-101.772 53.769-53.558 90.445-121.86 105.387-196.267h47.36v-194.133h-2.56l-151.893-139.52-226.133 25.6v71.253h206.080l34.56 41.387zM395.519 436.464c12.8 0 25.173-5.12 34.133-14.507 9.003-9.079 14.059-21.346 14.059-34.133s-5.056-25.054-14.059-34.133c-8.96-8.96-21.333-14.080-34.133-14.080-26.88 0-48.64 21.333-48.64 48.213s21.76 48.64 48.64 48.64zM628.052 436.464c26.88 0 48.213-21.76 48.213-48.64s-21.333-48.213-48.213-48.213c-26.88 0-48.64 21.333-48.64 48.213 0 12.898 5.124 25.271 14.246 34.394s21.495 14.246 34.394 14.246z" />
<glyph unicode="&#xe972;" glyph-name="integrations-star" d="M289.389-0.002c-30.917 0-57.198 10.823-78.841 32.464s-32.464 47.925-32.464 78.841c0 30.916 10.822 57.199 32.464 78.841s47.923 32.464 78.841 32.464c8.656 0 16.695-0.929 24.115-2.783s14.53-4.33 21.332-7.42l52.87 65.854c-17.313 19.17-29.371 40.81-36.173 64.929s-8.349 48.231-4.637 72.349l-75.13 25.044c-10.511-15.46-23.808-27.827-39.885-37.102s-34.010-13.912-53.797-13.912c-30.917 0-57.198 10.823-78.841 32.464s-32.464 47.925-32.464 78.841c0 30.917 10.821 57.198 32.464 78.841s47.923 32.464 78.841 32.464c30.917 0 57.198-10.822 78.841-32.464s32.464-47.923 32.464-78.841v-7.42l75.13-25.97c12.368 22.261 28.91 41.121 49.624 56.58s44.058 25.351 70.030 29.681v80.695c-24.115 6.802-44.058 19.942-59.827 39.42s-23.651 42.203-23.651 68.173c0 30.917 10.822 57.198 32.464 78.841s47.925 32.464 78.841 32.464 57.199-10.821 78.841-32.464c21.641-21.643 32.464-47.923 32.464-78.841 0-25.97-8.040-48.695-24.115-68.173s-35.867-32.618-59.363-39.42v-80.695c25.97-4.33 49.315-14.222 70.030-29.681s37.257-34.319 49.624-56.58l75.13 25.97v7.42c0 30.917 10.823 57.198 32.464 78.841s47.925 32.464 78.841 32.464c30.916 0 57.199-10.822 78.841-32.464s32.464-47.923 32.464-78.841c0-30.916-10.823-57.199-32.464-78.841s-47.925-32.464-78.841-32.464c-19.787 0-37.872 4.637-54.261 13.912s-29.526 21.641-39.42 37.102l-75.13-25.044c3.71-24.115 2.163-48.075-4.637-71.885s-18.858-45.606-36.173-65.39l52.87-64.929c6.801 3.090 13.912 5.41 21.332 6.956s15.46 2.319 24.115 2.319c30.916 0 57.199-10.823 78.841-32.464s32.464-47.925 32.464-78.841c0-30.916-10.823-57.199-32.464-78.841s-47.925-32.464-78.841-32.464c-30.916 0-57.199 10.823-78.841 32.464s-32.464 47.925-32.464 78.841c0 12.367 2.010 24.271 6.030 35.71s9.43 21.797 16.231 31.071l-52.87 65.854c-25.35-14.221-52.407-21.332-81.159-21.332s-55.809 7.111-81.159 21.332l-51.942-65.854c6.802-9.275 12.212-19.633 16.231-31.071s6.030-23.345 6.030-35.71c0-30.916-10.822-57.199-32.464-78.841s-47.923-32.464-78.841-32.464zM178.087 463.764c10.511 0 19.324 3.553 26.434 10.668s10.668 15.923 10.668 26.434c0 10.511-3.555 19.324-10.668 26.434s-15.923 10.668-26.434 10.668c-10.511 0-19.324-3.555-26.434-10.668s-10.668-15.923-10.668-26.434c0-10.511 3.555-19.323 10.668-26.434s15.923-10.668 26.434-10.668zM289.389 74.201c10.511 0 19.324 3.553 26.434 10.668s10.668 15.925 10.668 26.434c0 10.51-3.555 19.323-10.668 26.434s-15.923 10.668-26.434 10.668c-10.511 0-19.324-3.553-26.434-10.668s-10.668-15.925-10.668-26.434c0-10.51 3.555-19.323 10.668-26.434s15.923-10.668 26.434-10.668zM511.999 704.924c10.51 0 19.323 3.555 26.434 10.668s10.668 15.923 10.668 26.434c0 10.511-3.553 19.324-10.668 26.434s-15.925 10.668-26.434 10.668c-10.51 0-19.323-3.555-26.434-10.668s-10.668-15.923-10.668-26.434c0-10.511 3.553-19.324 10.668-26.434s15.925-10.668 26.434-10.668zM511.999 296.808c25.97 0 47.925 8.969 65.854 26.898s26.898 39.885 26.898 65.854c0 25.97-8.969 47.925-26.898 65.854s-39.885 26.898-65.854 26.898c-25.97 0-47.925-8.969-65.854-26.898-17.931-17.93-26.898-39.885-26.898-65.854s8.967-47.925 26.898-65.854c17.93-17.93 39.885-26.898 65.854-26.898zM734.609 74.201c10.51 0 19.323 3.553 26.434 10.668s10.668 15.925 10.668 26.434c0 10.51-3.553 19.323-10.668 26.434s-15.925 10.668-26.434 10.668c-10.51 0-19.323-3.553-26.434-10.668s-10.668-15.925-10.668-26.434c0-10.51 3.553-19.323 10.668-26.434s15.925-10.668 26.434-10.668zM845.911 463.764c10.51 0 19.323 3.553 26.434 10.668s10.668 15.923 10.668 26.434c0 10.511-3.553 19.324-10.668 26.434s-15.925 10.668-26.434 10.668c-10.51 0-19.323-3.555-26.434-10.668s-10.668-15.923-10.668-26.434c0-10.511 3.553-19.323 10.668-26.434s15.925-10.668 26.434-10.668z" />
<glyph unicode="&#xe973;" glyph-name="filter-table" d="M426.667 170.666v85.333h170.668v-85.333h-170.668zM256 383.999v85.333h512.001v-85.333h-512.001zM128 597.334v85.333h768.001v-85.333h-768.001z" />
<glyph unicode="&#xe974;" glyph-name="donut" d="M482.133 2.667c-112.355 8.533-206.4 53.333-282.133 134.4s-113.6 177.421-113.6 289.067c0 112.355 37.867 208.889 113.6 289.6s169.778 125.333 282.133 133.867v-108.8c-81.778-7.823-150.4-41.6-205.867-101.333s-83.2-130.846-83.2-213.333c0-82.487 27.733-153.779 83.2-213.867s124.089-93.687 205.867-100.8v-108.8zM830.933 458.134c-7.821 75.377-38.4 139.911-91.733 193.6s-117.687 83.733-193.067 90.133v108.8c105.246-7.823 194.846-48.711 268.8-122.667s114.846-163.911 122.667-269.867h-106.667zM546.133 2.667v108.8c75.379 5.687 139.554 35.379 192.533 89.067s83.733 118.221 92.267 193.6h106.667c-7.821-105.954-48.533-195.913-122.133-269.867s-163.379-114.487-269.333-121.6z" />
<glyph unicode="&#xe975;" glyph-name="valuation" d="M682.668 554.665h128l-213.332-298.668zM426.668 554.665h170.668l-85.332-341.332zM213.332 554.665h128l85.332-298.668zM640 767.997h85.332l85.332-128h-128zM469.332 767.997h85.332l42.668-128h-170.668zM298.668 767.997h85.332l-42.668-128h-128zM256 853.333l-170.668-256 426.668-597.332 426.668 597.332-170.668 256h-512z" />
<glyph unicode="&#xe976;" glyph-name="yooli" d="M345.443 869.619c22.465-0.852 39.985-19.756 39.133-42.221l-0.104-2.818-0.288-8.178c-0.244-7.103-0.582-17.369-0.958-29.983-0.752-25.238-1.654-59.83-2.255-97.277-1.218-75.918-1.12-160.38 3.419-203.882 2.884-27.904 10.983-62.053 29.806-89.057 17.479-25.083 45.693-46.462 96.523-49.307 46.572-2.609 75.445 18.212 95.509 48.363 21.403 32.162 31.442 73.955 34.299 103.948l0.045 0.447c2.935 27.608 3.407 79.213 3 126.012-0.199 22.949-0.602 44.046-0.948 59.412-0.175 7.678-0.338 13.914-0.456 18.221l-0.142 4.95-0.049 1.686c-0.7 22.47 16.946 41.254 39.416 41.955s41.256-16.984 41.956-39.455l0.057-1.793 0.142-5.11c0.122-4.418 0.289-10.782 0.464-18.601 0.358-15.63 0.765-37.124 0.968-60.557 0.399-45.86 0.065-102.030-3.432-135.106-3.623-37.796-16.185-93.991-47.545-141.117-11.373-17.084-25.323-33.042-42.079-46.401 0.846-6.346 1.669-13.616 2.329-21.627 2.361-28.604 2.813-68.033-5.703-109.024-8.532-41.044-26.512-85.715-62.618-121.883-36.632-36.693-88.634-61.324-158.852-67.377-22.398-1.929-42.121 14.663-44.051 37.063-1.93 22.396 14.663 42.119 37.061 44.049 53.997 4.653 87.087 22.612 108.226 43.788 21.664 21.696 34.132 50.166 40.523 80.924 5.784 27.835 6.219 55.857 4.795 78.641-14.679-2.638-30.489-3.644-47.472-2.695-76.61 4.29-127.441 39.107-158.759 84.043-29.97 43.002-40.422 92.692-43.993 127.223-5.138 49.265-5.043 138.761-3.842 213.575 0.609 37.923 1.522 72.904 2.281 98.396 0.381 12.751 0.722 23.141 0.97 30.35l0.293 8.332 0.109 2.957c0.852 22.465 19.756 39.986 42.221 39.133z" />
<glyph unicode="&#xe977;" glyph-name="feedback" d="M454.406 349.865h288v76.802h-211.198l-76.802-76.802zM281.606 349.865h94.082l226.562 224.64c3.838 3.838 5.76 8.64 5.76 14.4s-1.922 10.562-5.76 14.4l-67.198 67.198c-3.838 3.838-8.64 5.76-14.4 5.76s-10.562-1.922-14.4-5.76l-224.64-226.562v-94.082zM128.008 42.669v691.2c0 21.118 7.526 39.206 22.577 54.257 15.027 15.027 33.101 22.539 54.219 22.539h614.398c21.118 0 39.206-7.518 54.257-22.539 15.027-15.051 22.539-33.139 22.539-54.257v-460.8c0-21.118-7.518-39.206-22.539-54.257-15.051-15.027-33.139-22.539-54.257-22.539h-537.602l-153.598-153.598zM204.804 227.947l45.122 45.122h569.282v460.8h-614.398v-505.922z" />
<glyph unicode="&#xe978;" glyph-name="leading" d="M204.758 42.134c-21.123 0-39.205 7.524-54.247 22.563-15.042 15.043-22.563 33.124-22.563 54.247v537.677c0 21.123 7.521 39.205 22.563 54.247s33.124 22.563 54.247 22.563h342.768l-76.811-76.811h-265.957v-537.677h537.675v266.917l76.811 76.811v-343.728c0-21.123-7.52-39.204-22.563-54.247-15.043-15.040-33.124-22.563-54.247-22.563h-537.675zM358.38 272.566v163.223l352.369 352.37c7.681 7.681 16.322 13.441 25.924 17.282s19.203 5.76 28.804 5.76c10.243 0 20.001-1.92 29.283-5.76s17.763-9.601 25.443-17.282l53.767-54.728c7.039-7.681 12.482-16.162 16.322-25.443s5.76-18.722 5.76-28.325c0-9.601-1.758-19.043-5.281-28.325s-9.121-17.763-16.803-25.443l-352.369-353.331h-163.223zM435.19 349.377h53.767l222.751 222.752-26.884 26.884-27.843 26.884-221.79-221.792v-54.728z" />
<glyph unicode="&#xe979;" glyph-name="to-sign" d="M568.138 418.583c43.717 32.337 77.848 67.816 102.4 106.441s36.827 77.098 36.827 115.425c0 19.161-3.144 33.236-9.432 42.216s-14.822 13.474-25.6 13.474c-28.144 0-52.997-23.803-74.553-71.411s-32.337-101.352-32.337-161.236c0-8.382 0.152-16.319 0.449-23.803s1.048-14.522 2.247-21.11zM170.217 85.334v71.86h71.86v-71.86h-71.86zM313.936 85.334v71.86h71.86v-71.86h-71.86zM457.656 85.334v71.86h71.86v-71.86h-71.86zM601.374 85.334v71.86h71.86v-71.86h-71.86zM745.095 85.334v71.86h71.86v-71.86h-71.86zM184.588 229.055l-50.301 50.301 57.488 57.488-57.488 57.488 50.301 50.301 57.488-57.488 57.488 57.488 50.301-50.301-57.488-57.488 57.488-57.488-50.301-50.301-57.488 57.488-57.488-57.488zM617.544 264.983c-17.964 0-34.431 3.442-49.403 10.329s-27.847 18.117-38.625 33.685c-14.971-8.382-30.39-15.87-46.26-22.456s-32.185-13.176-48.953-19.762l-25.151 67.368c16.769 5.991 32.786 12.424 48.056 19.312s30.090 14.22 44.463 22.008c-2.993 13.176-5.24 27.547-6.737 43.115s-2.247 32.337-2.247 50.301c0 86.232 17.066 157.641 51.2 214.232s76.952 84.885 128.449 84.885c31.141 0 56.589-11.528 76.351-34.584s29.641-55.241 29.641-96.562c0-51.498-16.319-102.4-48.953-152.701s-77.996-95.512-136.085-135.636c4.193-4.193 8.534-7.336 13.025-9.432s9.133-3.144 13.923-3.144c15.568 0 33.685 9.88 54.344 29.641s39.371 45.811 56.14 78.148l65.573-30.54c-4.193-10.179-7.483-22.456-9.88-36.827s-2.094-26.948 0.899-37.726c5.991 2.993 13.025 8.085 21.11 15.271s16.319 16.168 24.701 26.948l56.589-44.014c-15.568-21.559-33.533-38.922-53.896-52.099s-39.224-19.762-56.589-19.762c-12.575 0-23.803 3.744-33.685 11.227s-18.117 19.015-24.701 34.584c-16.769-14.971-33.834-26.346-51.2-34.134s-34.733-11.677-52.099-11.677z" />
<glyph unicode="&#xe97a;" glyph-name="cra" d="M289.791 737.685c-28.085 0-44.086-22.787-44.086-64.623v-25.992c0-41.304 16.001-63.914 44.086-63.914 25.361 0 40.511 18.871 40.682 44.509h53.785v-7.122c0-51.451-39.828-85.988-94.98-85.988-64.68 0-100.934 43.618-100.934 112.869v25.635c0 69.611 36.253 113.225 100.934 113.225 55.316 0 94.98-34.894 94.98-87.412v-6.942h-53.785c-0.171 26.525-15.318 45.755-40.682 45.755zM289.278 534.553h546.379c39.724 0 71.922-32.203 71.922-71.922v-323.659c0-39.722-32.201-71.922-71.922-71.922h-647.314c-39.724 0-71.922 32.205-71.922 71.922v323.659c0 39.724 32.203 71.922 71.922 71.922h100.934zM419.151 782.013h98.382c57.362 0 85.618-33.824 85.618-79.578 0-40.058-25.7-61.774-41.531-68.541l46.298-94.89h-62.295l-39.319 86.702h-31.829v-86.702h-55.316v243.009zM474.47 737.861v-70.501h34.211c21.788 0 36.425 11.572 36.425 34.537 0 24.032-15.831 35.964-35.914 35.964h-34.722zM673.788 539.004l15.149 55.721h71.826l14.977-55.721h59.918l-74.382 243.009h-68.764l-74.894-243.009h56.169zM726.552 729.316l24.169-92.041h-51.406l24.681 92.041h2.554zM835.659 462.63h-647.314v-323.659h647.314v323.659zM529.761 174.93h-33.723v30.857c-21.164 1.298-40.179 7.145-52.733 14.615v39.63c16.5-11.045 36.234-20.137 59.548-20.137 19.374 0 35.872 5.198 35.872 20.786 0 14.944-13.629 20.137-37.308 25.34-43.044 9.742-61.339 25.66-61.339 57.166 0 30.208 23.676 49.371 55.958 54.244v29.235h33.723v-28.905c16.141-1.947 29.412-6.498 40.891-12.992v-39.302c-16.86 12.018-34.798 19.163-57.036 19.163-18.295 0-29.056-7.475-29.056-19.163 0-14.62 12.553-18.838 38.382-24.687 43.406-10.071 60.982-26.963 60.982-58.789 0-30.857-22.958-48.073-54.167-53.92v-33.133z" />
<glyph unicode="&#xe97b;" glyph-name="flag" d="M202.928 433.95v-393.364c0-7.962-2.698-14.632-8.093-20.020s-12.076-8.078-20.047-8.078c-7.97 0-14.638 2.693-20.005 8.078s-8.049 12.057-8.049 20.020v797.536c0 12.861 4.35 23.64 13.052 32.341s19.48 13.052 32.341 13.052h321.068c10.867 0 20.568-3.315 29.111-9.948 8.542-6.623 13.856-15.412 15.946-26.369l15.129-76.074h258.497c12.86 0 23.64-4.309 32.339-12.924 8.7-8.615 13.052-19.293 13.052-32.030v-359.665c0-12.749-4.35-23.422-13.052-32.029-8.698-8.609-19.479-12.912-32.339-12.912h-208.681c-10.864 0-20.565 3.313-29.109 9.946-8.542 6.623-13.858 15.414-15.946 26.369l-15.129 76.072h-360.084zM632.819 377.758h188.253v337.171h-257.302c-10.874 0-20.583 3.315-29.122 9.948-8.542 6.623-13.858 15.412-15.946 26.368l-15.129 76.074h-300.645v-337.171h369.694c10.874 0 20.58-3.316 29.122-9.949 8.539-6.623 13.856-15.411 15.943-26.369l15.132-76.072z" />
</font>
</defs>
</svg>
